Ссылка на приватное зеркало нашего сайта всего за 1$. Внимание количество ограничено!!!

2 сезон

iTunes

iTunes

1

iTunes

iTunes

iTunes

WEBRip

iTunes

30
pack

Вам бонус

ВАЖНО

!!Акция!!

Alien_RageХит недели

RePack

Horizon Zero Dawn

ИГРА 18+

pack

RePack

jed

!!Акция!!

Alien_Rage

RePack

fifa19

RePack

Assassins Creed: Odyssey

RePack

NEED FOR SPEED™ PAYBACK

4 сезон

9 сезон

Бесстыжие 9 сезон

Все сериалы

все сериалы на PB.wtf

RePack

FAR CRY 5
  

Впадина в земле / Hollow in the Land (Скутер Коркле) [2017, триллер, драма, детектив, WEB-DL 1080p] MVO [@MUZOBOZ@] pb.wtf

Впадина в земле через торрент pb.wtf

Размер: 3.71 GB | Добавлен: 2 года 9 мес. назад | Торрент скачан:108 раз
Скачать  

09-12-2017 10:30 Впадина в земле Скачать торрент  

Впадина в земле / Hollow in the Land
Год выпуска: 2017
Страна: Канада
Жанр: триллер, драма, детектив
Продолжительность: 01:38:44
Перевод: Любительский (многоголосый) - [@MUZOBOZ@]
Субтитры: отсутствуют

Режиссер: Скутер Коркле

rating

В ролях:

Дианна Агрон, Рашель Лефевр, Шон Эшмор, Джаред Абрахамсон, Брент Стейт, Сара Дагдэйл, Джессика МакЛеод, Глайнис Дейвис, Майкл Роджерс, Мэрилин Норри

Описание:

Элисон работает на мельнице. После того, как ее отца убили, жизнь становится трудной, но ее постигает еще одно горе - пропадает брат. Элисон приступает к поискам.

Качество: WEB-DL 1080p
Формат: MKV
Видео кодек: H.264
Аудио кодек: AC3

Видео: MKV, 4915 Кбит/с, 1920x792
Аудио#1: Русский, (AC3, 2 ch, 384 Кбит/с)

скриншот   скриншот   скриншот  

Общее
Уникальный идентификатор : 186458747747206403529895430869390895497 (0x8C46A6088C3CA971822312594C7AA989)
Полное имя : D:\Hollow.in.the.Land.2017.P.WEB-DL.1O8Op_KOSHARA.mkv
Формат : Matroska
Версия формата : Version 2
Размер файла : 3,71 Гбайт
Продолжительность : 1 ч. 40 м.
Режим общего битрейта : Переменный
Общий поток : 5301 Кбит/сек
Дата кодирования : UTC 2017-12-09 04:20:12
Программа кодирования : mkvmerge v8.3.0 ('Over the Horizon') 64bit
Библиотека кодирования : libebml v1.3.1 + libmatroska v1.4.2

Видео
Идентификатор : 1
Формат : AVC
Формат/Информация : Advanced Video Codec
Профиль формата : High@L4.1
Параметр CABAC формата : Да
Параметр ReFrames формата : 5 кадров
Идентификатор кодека : V_MPEG4/ISO/AVC
Продолжительность : 1 ч. 40 м.
Вид битрейта : Переменный
Битрейт : 4915 Кбит/сек
Максимальный битрейт : 5600 Кбит/сек
Ширина : 1920 пикселей
Высота : 792 пикселя
Соотношение сторон : 2,40:1
Режим частоты кадров : Постоянный
Частота кадров : 23,976 (24000/1001) кадра/сек
Стандарт вещания : Component
Цветовое пространство : YUV
Субдискретизация насыщенности : 4:2:0
Битовая глубина : 8 бит
Тип развёртки : Прогрессивная
Бит/(Пиксели*Кадры) : 0.135
Размер потока : 3,44 Гбайт (93%)
Default : Да
Forced : Нет
Цветовой диапазон : Limited
Основные цвета : BT.709
Характеристики трансфера : BT.709
Коэффициенты матрицы : BT.709

Аудио
Идентификатор : 2
Формат : AC-3
Формат/Информация : Audio Coding 3
Расширение режима : CM (complete main)
Параметр Endianness формата : Big
Идентификатор кодека : A_AC3
Продолжительность : 1 ч. 40 м.
Вид битрейта : Постоянный
Битрейт : 384 Кбит/сек
Каналы : 2 канала
Расположение каналов : Front: L R
Частота : 48,0 КГц
Частота кадров : 31,250 кадров/сек (1536 spf)
Метод сжатия : С потерями
Размер потока : 275 Мбайт (7%)
Default : Да
Forced : Нет

pb.wtf



Скачать Впадина в земле через торрент http://s018.radikal.ru/i511/1712/6a/c3525248b691.jpg Скачать фильм Впадина в земле через торрент бесплантно в хорошем качестве Описание: Элисон работает на мельнице. После того, как ее отца убили, жизнь становится трудной, но ее постигает еще одно горе - пропадает ... 8.2 10 5
Торрент: Зарегистрирован [2017-12-09 10:30] · скачан: 108 раз
Статус: T временная
Размер: 3.71 GB
Как cкачать? Как скачать Впадина в земле через торрент | qTorrent

% Раздел Тема Автор DL S | L
T Фильмы (мультфильмы) cо спонсором показа (Новинки AVI/MKV) [ 3.15 GB ] Впадина в земле / Hollow in the Land [2017 WEB-DL 720p] MVO [@MUZOBOZ@] bober100 Скачать
1 | 0
T Фильмы (мультфильмы) cо спонсором показа (Новинки AVI/MKV) [ 1.46 GB ] Впадина в земле / Hollow in the Land [2017 WEB-DLRip] MVO [@MUZOBOZ@] bober100 Скачать
1 | 0

28-11-2019 20:33  

Отключить всю рекламу на сайте

    Дорогой пользователь! Огромная просьба, поблагодарите релизера, оцените раздачу и оставьте свои комментарий, если Вы скачали Впадина в земле через торрент бесплатно! Внесите свою лепту в развитие PiratBit!
    Комментировать посты могут только пользователи прошедшие не сложную регистрацию
    Показать сообщения:    

    Впадина в земле через торрент
    Скачать бесплатно Впадина в земле
    Впадина в земле скачать торрент
    Впадина в земле смотреть онлайн
    Cкачать фильм Впадина в земле бесплатно
    Впадина в земле скачать торрент в хорошем качестве
    Впадина в земле смотреть онлайн бесплатно в хорошем качестве


    Вы не можете начинать темы
    Вы не можете отвечать на сообщения
    Вы не можете редактировать свои сообщения
    Вы не можете удалять свои сообщения
    Вы не можете голосовать в опросах
    Вы не можете прикреплять файлы к сообщениям
    Вы можете скачивать файлы