MEGA SALE -50% FORZA HORIZON 4 ULTIMATE+ВСЕ DLC+ОНЛАЙН всего за 599р. 299 руб. (супер цена). Внимание количество ограничено!!!

iTunes

1+1

iTunes

мы

iTunes

1

iTunes

Чернобыль

1 сезон

Ральф против интернета

Лицензия

ПШазам

Лицензия

Игра престолов

Лицензия

30
pack

ВАЖНО

!!Акция!!

Alien_RageХит недели

RePack

Resident Evil 21

ИГРА 18+

pack

RePack

Metro:Exodus

!!Акция!!

Alien_Rage

RePack

fifa19

RePack

Assassins Creed: Odyssey

RePack

NEED FOR SPEED™ PAYBACK

3 сезон

9 сезон

Бесстыжие 9 сезон

Все сериалы

все сериалы на PB.wtf

RePack

FAR CRY 5
Ребята, катастрофически не хватает 7730р. для оплаты серверов за ИЮЛЬ (всвязи с блокировками трафик упал в 3 раза), 1-2р., выручайте.
  

Другой мир: Восстание ликанов / Underworld: Rise of the Lycans (Патрик Татопулос) [2009 г., Фантастика, Фэнтези, Боевик, Триллер, Приключения, BDRip-AVC, Дубляж] pb.wtf

Другой мир: Восстание ликанов через торрент pb.wtf

Размер: 2.17 GB | Добавлен: 1 год 8 мес. назад | Торрент скачан:12 раз
Скачать  

09-12-2017 23:21 Другой мир: Восстание ликанов Скачать торрент  

Другой мир: Восстание ликанов /
Underworld: Rise of the Lycans
Год выпуска: 2009
Страна: США, Новая Зеландия
Жанр: Фантастика, Фэнтези, Боевик, Триллер, Приключения
Продолжительность: 01:32:29
Перевод: Профессиональный (полное дублирование) Лицензия
Субтитры: отсутствуют

Режиссер: Патрик Татопулос

Премьера в мире: 22 января 2009

rating

В ролях: Майкл Шин, Билл Найи, Рона Митра, Стивен Макинтош, Кевин Гревье, Дэвид Эстон, Джеральдин Брофи, Лейтон Кардно, Алекс Кэрролл, Элизабет Хоторн

Описание: История, прослеживающая происхождение вековой кровной мести, между аристократическими вампирами, известными как Торговцы смертью и их рабами. Молодой ликан по имени Люциан — мощный лидер, который сплачивает оборотней, чтобы выступить против Виктора, жестокого короля вампиров, который поработил их. К Люциану присоединяется Соня, и помогает ему в его борьбе против смертоносной армии торговцев смертью и борьбе за свободу ликанов.

Качество: BDRip-AVC
Формат: MKV
Видео кодек: H.264
Аудио кодек: AC3
Видео: AVC/H.264, 1024х432 (2,40:1), ~2910 kbps, 0.274 bit/pixel
Аудио#1: Русский: AC3, 6 ch, 448 kbps - Профессиональный (полное дублирование) Лицензия
Релиз от: winchester00100010
Общее
Уникальный идентификатор : 170337660461877266870860564259896271015 (0x8025D710672947D4934D9D3C0E9BA0A7)
Полное имя : E:\Торрент файлы раздач вместе с фильмами\Underworld.Rise.Of.The.Lycans.2009.BDRip-AVC.mkv
Формат : Matroska
Версия формата : Version 2
Размер файла : 2,17 Гбайт
Продолжительность : 1 ч. 32 м.
Общий поток : 3357 Кбит/сек
Дата кодирования : UTC 2017-12-06 16:43:28
Программа кодирования : mkvmerge v7.8.0 ('River Man') 32bit built on Apr 3 2015 12:11:22
Библиотека кодирования : libebml v1.3.1 + libmatroska v1.4.2

Видео
Идентификатор : 1
Формат : AVC
Формат/Информация : Advanced Video Codec
Профиль формата : High@L4.1
Настройки формата : CABAC / 12 Ref Frames
Параметр CABAC формата : Да
Параметр RefFrames формата : 12 кадров
Идентификатор кодека : V_MPEG4/ISO/AVC
Продолжительность : 1 ч. 32 м.
Битрейт : 2910 Кбит/сек
Ширина : 1024 пикселя
Высота : 432 пикселя
Соотношение сторон : 2,40:1
Режим частоты кадров : Постоянный
Частота кадров : 23,976 (24000/1001) кадра/сек
Цветовое пространство : YUV
Субдискретизация насыщенности : 4:2:0
Битовая глубина : 8 бит
Тип развёртки : Прогрессивная
Бит/(Пиксели*Кадры) : 0.274
Размер потока : 1,84 Гбайт (85%)
Библиотека кодирования : x264 core 146 r2538 121396c
Настройки программы : cabac=1 / ref=12 / deblock=1:-3:-3 / analyse=0x3:0x113 / me=umh / subme=10 / psy=1 / psy_rd=1.00:0.00 / mixed_ref=1 / me_range=32 / chroma_me=1 / trellis=2 / 8x8dct=1 / cqm=0 / deadzone=21,11 / fast_pskip=0 / chroma_qp_offset=-2 / threads=12 / lookahead_threads=2 / sliced_threads=0 / nr=0 / decimate=0 / interlaced=0 / bluray_compat=0 / constrained_intra=0 / bframes=10 / b_pyramid=2 / b_adapt=2 / b_bias=0 / direct=3 / weightb=1 / open_gop=0 / weightp=2 / keyint=240 / keyint_min=23 / scenecut=40 / intra_refresh=0 / rc_lookahead=40 / rc=2pass / mbtree=0 / bitrate=2910 / ratetol=1.0 / qcomp=0.60 / qpmin=0 / qpmax=69 / qpstep=4 / cplxblur=20.0 / qblur=0.5 / vbv_maxrate=14000 / vbv_bufsize=14000 / nal_hrd=none / filler=0 / ip_ratio=1.40 / pb_ratio=1.30 / aq=1:0.80
Default : Да
Forced : Нет

Аудио
Идентификатор : 2
Формат : AC-3
Формат/Информация : Audio Coding 3
Идентификатор кодека : A_AC3
Продолжительность : 1 ч. 32 м.
Вид битрейта : Постоянный
Битрейт : 448 Кбит/сек
Каналы : 6 каналов
Расположение каналов : Front: L C R, Side: L R, LFE
Частота : 48,0 КГц
Частота кадров : 31,250 кадров/сек (1536 SPF)
Битовая глубина : 16 бит
Метод сжатия : С потерями
Размер потока : 296 Мбайт (13%)
ServiceKind/String : Complete Main
Default : Да
Forced : Нет

pb.wtf



Скачать Другой мир: Восстание ликанов через торрент http://pic1.kartinco.top/images/11/go2zf.jpg Скачать фильм Другой мир: Восстание ликанов через торрент бесплантно в хорошем качестве Описание: История, прослеживающая происхождение вековой кровной мести, между аристократическими вампирами, известными как Торговцы смертью ... 10 10 2
Info! Золотая раздача, скачанное не засчитывается.
Торрент: Зарегистрирован [2017-12-11 16:45] · скачан: 12 раз
Статус: √ проверено
Размер: 2.17 GB
Как cкачать? Как скачать Другой мир: Восстание ликанов через торрент | qTorrent

% Раздел Тема Автор DL S | L
Фильмы [HD 720p, 1080p] (Хороший звук DUB, MVO) [ 4.87 GB ] Другой мир: Восстание ликанов / Underworld: Rise of the Lycans [2008 BDRip 720p ] Seff2 Скачать
1 | 0
Фильмы 2009 [ 1.36 GB ] Другой мир: Восстание ликанов / Underworld: Rise of the Lycans [2009 DVDRip] paul08 Скачать
1 | 0
Фильмы (Blu-ray, BD-Remux, HDDVD) [ 18.18 GB ] Другой мир: Восстание ликанов / Underworld: Rise of the Lycans [2009 . BD-Remux] Begunok713 Скачать
1 | 0
Фильмы 2009 [ 700 MB ] Другой мир: Восстание ликанов / Underworld: Rise of the Lycans [2009 DVDRip] DEVI Скачать
1 | 0


>> Регистрируемся здесь <<






Отзывы и комментарии о схеме читаем и пишем здесь: ---> Отзывы и комментарии о схеме

Новые благодарочки в телеграм довольных пользователей:
скриншот   скриншот   скриншот   скриншот   скриншот

11-12-2017 16:46 Другой мир: Восстание ликанов Скачать торрент  

Перезалил торрент файлик, так как человек писал вконтакте мне, что
он не может скачать и не качается раздача, перекачайте торрентpb.wtf



    Дорогой пользователь! Огромная просьба, поблагодарите релизера, оцените раздачу и оставьте свои комментарий, если Вы скачали Другой мир: Восстание ликанов через торрент бесплатно! Внесите свою лепту в развитие PiratBit!
    Комментировать посты могут только пользователи прошедшие не сложную регистрацию
    Показать сообщения:    

    Другой мир: Восстание ликанов через торрент
    Скачать бесплатно Другой мир: Восстание ликанов
    Другой мир: Восстание ликанов скачать торрент
    Другой мир: Восстание ликанов смотреть онлайн
    Cкачать фильм Другой мир: Восстание ликанов бесплатно
    Другой мир: Восстание ликанов скачать торрент в хорошем качестве
    Другой мир: Восстание ликанов смотреть онлайн бесплатно в хорошем качестве


    Вы не можете начинать темы
    Вы не можете отвечать на сообщения
    Вы не можете редактировать свои сообщения
    Вы не можете удалять свои сообщения
    Вы не можете голосовать в опросах
    Вы не можете прикреплять файлы к сообщениям
    Вы можете скачивать файлы