Ссылка на приватное зеркало всего за 1$. Внимание количество ограничено!!!

OK

1+1

iTunes

мы

OK

1

WEB-DLRip

Джокер

Пифагор

Ведьмак / The Witcher сериал

iTunes

ПШазам

ОК

Оно 2

iTunes

30
pack

Вам бонус

ВАЖНО

!!Акция!!

Alien_RageХит недели

RePack

Resident Evil 21

ИГРА 18+

pack

RePack

jed

RePack

fifa19

RePack

Assassins Creed: Odyssey

RePack

NEED FOR SPEED™ PAYBACK

4 сезон

9 сезон

Бесстыжие 9 сезон

Все сериалы

все сериалы на PB.wtf

RePack

FAR CRY 5
  

Под деревом / Undir trénu (Хафштайн Гуннар Сигурдссон) [2017 г, драма, черная комедия, WEBRip] DVO pb.wtf

Под деревом через торрент pb.wtf

Размер: 743 MB | Добавлен: 2 года 1 мес. назад | Торрент скачан:73 раза
Скачать  

10-12-2017 13:10 Под деревом Скачать торрент  

Под деревом / Undir trénu
Год выпуска: 2017
Страна: Исландия
Жанр: драма, черная комедия
Продолжительность: 01:28:53
Перевод: Любительский (двухголосый) [SNK-TV]

Режиссер: Хафштайн Гуннар Сигурдссон

rating

В ролях: Стейнтор Хроар Стейнторссон, Эдда Бьёргвинсдоттир, Сигюрдюр Сигюрйоунссон, Торстейнн Бахман, Сельма Бьёднсдоуттир, Лара Йоханна Йонсдоттир, Доура Йоуханнсдоуттир

Описание: Застукав своего мужа Атли за просмотром порно, Агнес выгоняет его из дома и не желает, чтобы он виделся с их дочерью. Атли переселяется к своим родителям, которые затеяли спор с соседями из-за красивого и большого дерева, растущего прямо на границе их участков. Пока Атли борется за право видеться с дочерью, спор этот накаляется и переходит все рамки — имущество приходит в негодность, таинственным образом исчезают домашние животные, повсюду устанавливаются камеры и даже поговаривают, будто видели соседа с бензопилой...

Качество: WEBRip (Under the Tree / 1080p) Sample
Формат: AVI
Видео: XviD, 1032 Кбит/с, 688x288, 24 кадр/с
Аудио: MP3, 2 ch, 128 Кбит/с
Релиз от: Koenig
скриншот   скриншот   скриншот   скриншот   скриншот   скриншот  

Общее
Полное имя : Under.the.Tree.2017.WEBRip.avi
Формат : AVI
Формат/Информация : Audio Video Interleave
Размер файла : 743 Мбайт
Продолжительность : 1 ч. 28 м.
Общий поток : 1169 Кбит/сек
Программа кодирования : VirtualDubMod 1.5.10.2 (build 2540/release)
Библиотека кодирования : VirtualDubMod build 2540/release

Видео
Идентификатор : 0
Формат : MPEG-4 Visual
Профиль формата : Advanced Simple@L5
Параметр BVOP формата : 1
Параметр QPel формата : Нет
Параметр GMC формата : Без точки перехода
Параметр матрицы формата : Выборочная
Идентификатор кодека : XVID
Идентификатор кодека/Подсказка : XviD
Продолжительность : 1 ч. 28 м.
Битрейт : 1032 Кбит/сек
Ширина : 688 пикселей
Высота : 288 пикселей
Соотношение сторон : 2,40:1
Частота кадров : 24,000 кадра/сек
Цветовое пространство : YUV
Субдискретизация насыщенности : 4:2:0
Битовая глубина : 8 бит
Тип развёртки : Прогрессивная
Метод сжатия : С потерями
Бит/(Пиксели*Кадры) : 0.217
Размер потока : 656 Мбайт (88%)
Библиотека кодирования : XviD 65

Аудио
Идентификатор : 1
Формат : MPEG Audio
Версия формата : Version 1
Профиль формата : Layer 3
Режим : Joint stereo
Расширение режима : MS Stereo
Идентификатор кодека : 55
Идентификатор кодека/Подсказка : MP3
Продолжительность : 1 ч. 28 м.
Вид битрейта : Постоянный
Битрейт : 128 Кбит/сек
Каналы : 2 канала
Частота : 48,0 КГц
Метод сжатия : С потерями
Размер потока : 81,4 Мбайт (11%)
Выравнивание : Соединение по промежуткам
Продолжительность промежутка : 42 мс. (1,00 видеокадр)
Время предзагрузки промежутка : 504 мс.
Библиотека кодирования : LAME3.98r
Настройки программы : -m j -V 4 -q 3 -lowpass 17 -b 128

pb.wtf



Скачать Под деревом через торрент http://pic1.kartinco.top/images/11/ocogk.jpg Скачать фильм Под деревом через торрент бесплантно в хорошем качестве Описание: Застукав своего мужа Атли за просмотром порно, Агнес выгоняет его из дома и не желает, чтобы он виделся с их дочерью. Атли ... 9 10 4
Торрент: Зарегистрирован [2017-12-10 13:10] · скачан: 73 раз
Статус: T временная
Размер: 743 MB
Как cкачать? Как скачать Под деревом через торрент | qTorrent

% Раздел Тема Автор DL S | L
T Фильмы 2017 (Звук TS, Cam, VO, DVO) [ 1.38 GB ] Под Деревом / Under the Tree / Undir trénu [2017 черная HDRip] [DVO] killermax2013 Скачать
1 | 0


Последний раз редактировалось: koenig (2017-12-10 17:29), всего редактировалось 1 раз

28-11-2019 20:33  

Отключить всю рекламу на сайте

10-12-2017 16:59 Под деревом Скачать торрент  

Цитата:

Описание: Застукав своего мужа Атли за просмотром порно, Агнес выгоняет его из дома и не желает, чтобы он виделся с их дочерью.

Боюсь представить что он там смотрел.. pb.wtf



    Дорогой пользователь! Огромная просьба, поблагодарите релизера, оцените раздачу и оставьте свои комментарий, если Вы скачали Под деревом через торрент бесплатно! Внесите свою лепту в развитие PiratBit!
    Комментировать посты могут только пользователи прошедшие не сложную регистрацию
    Показать сообщения:    

    Под деревом через торрент
    Скачать бесплатно Под деревом
    Под деревом скачать торрент
    Под деревом смотреть онлайн
    Cкачать фильм Под деревом бесплатно
    Под деревом скачать торрент в хорошем качестве
    Под деревом смотреть онлайн бесплатно в хорошем качестве


    Вы не можете начинать темы
    Вы не можете отвечать на сообщения
    Вы не можете редактировать свои сообщения
    Вы не можете удалять свои сообщения
    Вы не можете голосовать в опросах
    Вы не можете прикреплять файлы к сообщениям
    Вы можете скачивать файлы