2 сезон

iTunes

1 сезон

1

iTunes

iTunes

iTunes

1 сезон

RePack

30

ИГРА 18+

pack

ВАЖНО

!!Акция!!

Alien_RageХит недели

RePack

MK11
pack

Забери бонус

RePack

jed

!!Акция!!

Alien_Rage

RePack

fifa19

RePack

Assassins Creed: Odyssey

RePack

NEED FOR SPEED™ PAYBACK

4 сезон

9 сезон

Бесстыжие 9 сезон

Все сериалы

все сериалы на PB.wtf

RePack

FAR CRY 5
  

Патти Кейкс / Patti Cake$ (Джереми Джаспер) [2017, драма, музыка, BDRip 1080p] MVO [Лицензия / iTunes] pb.wtf

Патти Кейкс через торрент pb.wtf

Размер: 9.03 GB | Добавлен: 2 года 10 мес. назад | Торрент скачан:35 раз
Скачать  

10-12-2017 16:19 Патти Кейкс Скачать торрент  

Патти Кейкс / Patti Cake$

Год выпуска: 2017
Страна: США
Жанр: драма, музыка
Продолжительность: 01:48:55
Перевод: Профессиональный многоголосый [Лицензия / iTunes]
Субтитры: английские (Forced), английские (Full), английские (SDH)
Режиссер: Джереми Джаспер
В ролях:

Даниэль МакДональд, Бриджет Эверетт, Siddharth Dhananjay, Мамуду Ати, Кэти Мориарти, МакКаул Ломбарди (Danny), Патрик Брана (Slaz), Дилан Блу (Drewsky / Master of Ceremonies), Уоррен Буб (Mr. Bagadella), Mackenzie Grace Castle (Bar Mitzvah Dancer), Brett Diggs (Promoter), Роберт Экард (Photographer)
Описание:
История Патрисии Дамбровски - полной белой девушки из маленького городка в Джерси, мечтающей о славе рэперши. Жизнь Патрисии разваливается, на плечах мамины неудачи и несчастья, а единственный, кто верит в талант девушки - её бабушка.
Рейтинг:

Качество: BDRip 1080p
Формат: MKV
Видео: AVC, 1920x1040 (1.85:1), 9982 kbps, 23,976 fps, 0,209 bpp
Аудио №1: русский / AC3 / 5.1 / 48 kHz / 384 kbps / |MVO|
Аудио №2: английский / DTS / 5.1 / 48 kHz / 1509 kbps / 24 bit
Навигация по главам: есть
General
Unique ID : 197049640361028265823871819768383703542 (0x943E615AB2E52A93B9736E932CC889F6)
Complete name : E:\Patti.Cakes.2017.P.1080p.BDRip.Rustorrents.mkv
Format : Matroska
Format version : Version 2
File size : 9.03 GiB
Duration : 1 h 48 min
Overall bit rate : 11.9 Mb/s
Movie name : rustorrents
Encoded date : UTC 2017-12-10 06:46:52
Writing application : mkvmerge v7.8.0 ('River Man') 32bit built on Apr 3 2015 12:11:22
Writing library : libebml v1.3.1 + libmatroska v1.4.2

Video
ID : 1
Format : AVC
Format/Info : Advanced Video Codec
Format profile : High@L4.1
Format settings, CABAC : Yes
Format settings, ReFrames : 4 frames
Codec ID : V_MPEG4/ISO/AVC
Duration : 1 h 48 min
Bit rate : 9 982 kb/s
Width : 1 920 pixels
Height : 1 040 pixels
Display aspect ratio : 1.85:1
Frame rate mode : Constant
Frame rate : 23.976 (24000/1001) FPS
Color space : YUV
Chroma subsampling : 4:2:0
Bit depth : 8 bits
Scan type : Progressive
Bits/(Pixel*Frame) : 0.209
Stream size : 7.41 GiB (82%)
Writing library : x264 core 152 r2851 ba24899
Encoding settings : cabac=1 / ref=4 / deblock=1:-3:-3 / analyse=0x3:0x113 / me=umh / subme=8 / psy=1 / psy_rd=1.00:0.00 / mixed_ref=1 / me_range=32 / chroma_me=1 / trellis=1 / 8x8dct=1 / cqm=0 / deadzone=21,11 / fast_pskip=1 / chroma_qp_offset=-2 / threads=24 / lookahead_threads=4 / sliced_threads=0 / nr=0 / decimate=1 / interlaced=0 / bluray_compat=0 / constrained_intra=0 / bframes=3 / b_pyramid=2 / b_adapt=2 / b_bias=0 / direct=3 / weightb=1 / open_gop=0 / weightp=2 / keyint=240 / keyint_min=24 / scenecut=40 / intra_refresh=0 / rc_lookahead=50 / rc=2pass / mbtree=1 / bitrate=9982 / ratetol=1.0 / qcomp=0.60 / qpmin=0 / qpmax=69 / qpstep=4 / cplxblur=20.0 / qblur=0.5 / ip_ratio=1.40 / aq=3:0.80
Default : Yes
Forced : No

Audio #1
ID : 2
Format : AC-3
Format/Info : Audio Coding 3
Mode extension : CM (complete main)
Format settings, Endianness : Big
Codec ID : A_AC3
Duration : 1 h 48 min
Bit rate mode : Constant
Bit rate : 384 kb/s
Channel(s) : 6 channels
Channel positions : Front: L C R, Side: L R, LFE
Sampling rate : 48.0 kHz
Frame rate : 31.250 FPS (1536 spf)
Compression mode : Lossy
Stream size : 299 MiB (3%)
Title : iTunes
Language : Russian
Default : Yes
Forced : Yes

Audio #2
ID : 3
Format : DTS
Format/Info : Digital Theater Systems
Mode : 16
Format settings, Endianness : Big
Codec ID : A_DTS
Duration : 1 h 48 min
Bit rate mode : Constant
Bit rate : 1 509 kb/s
Channel(s) : 6 channels
Channel positions : Front: L C R, Side: L R, LFE
Sampling rate : 48.0 kHz
Frame rate : 93.750 FPS (512 spf)
Bit depth : 24 bits
Compression mode : Lossy
Stream size : 1.15 GiB (13%)
Language : English
Default : No
Forced : No

Text #1
ID : 4
Format : UTF-8
Codec ID : S_TEXT/UTF8
Codec ID/Info : UTF-8 Plain Text
Title : Forced
Language : English
Default : Yes
Forced : Yes

Text #2
ID : 5
Format : UTF-8
Codec ID : S_TEXT/UTF8
Codec ID/Info : UTF-8 Plain Text
Language : English
Default : No
Forced : No

Text #3
ID : 6
Format : UTF-8
Codec ID : S_TEXT/UTF8
Codec ID/Info : UTF-8 Plain Text
Title : SDH
Language : English
Default : No
Forced : No

Menu
00:00:00.000 : en:00:00:00.000
00:04:42.282 : en:00:04:42.282
00:06:32.976 : en:00:06:32.976
00:07:59.062 : en:00:07:59.062
00:09:27.859 : en:00:09:27.859
00:12:02.096 : en:00:12:02.096
00:15:27.093 : en:00:15:27.093
00:17:49.026 : en:00:17:49.026
00:20:45.870 : en:00:20:45.870
00:26:47.731 : en:00:26:47.731
00:27:47.291 : en:00:27:47.291
00:30:01.883 : en:00:30:01.883
00:33:59.079 : en:00:33:59.079
00:38:08.828 : en:00:38:08.828
00:40:53.910 : en:00:40:53.910
00:43:56.467 : en:00:43:56.467
00:47:00.818 : en:00:47:00.818
00:50:41.205 : en:00:50:41.205
00:53:01.136 : en:00:53:01.136
00:58:36.179 : en:00:58:36.179
01:01:48.204 : en:01:01:48.204
01:04:56.267 : en:01:04:56.267
01:07:13.613 : en:01:07:13.613
01:13:12.054 : en:01:13:12.054
01:16:16.030 : en:01:16:16.030
01:22:12.386 : en:01:22:12.386
01:26:42.739 : en:01:26:42.739
01:30:04.316 : en:01:30:04.316
01:32:44.434 : en:01:32:44.434
01:35:43.529 : en:01:35:43.529
01:40:48.584 : en:01:40:48.584
01:43:09.600 : en:01:43:09.600
pb.wtf



Скачать Патти Кейкс через торрент http://i3.imageban.ru/out/2017/12/10/ef6dc3c0b9fa3fd66dfc8e7d57b97728.jpg Скачать фильм Патти Кейкс через торрент бесплантно в хорошем качестве Описание: История Патрисии Дамбровски - полной белой девушки из маленького городка в Джерси, мечтающей о славе рэперши. Жизнь Патрисии ... 5.5 10 2
Торрент: Зарегистрирован [2017-12-10 16:19] · скачан: 35 раз
Статус: T временная
Размер: 9.03 GB
Как cкачать? Как скачать Патти Кейкс через торрент | qTorrent

28-11-2019 20:33  

Отключить всю рекламу на сайте

    Дорогой пользователь! Огромная просьба, поблагодарите релизера, оцените раздачу и оставьте свои комментарий, если Вы скачали Патти Кейкс через торрент бесплатно! Внесите свою лепту в развитие PiratBit!
    Комментировать посты могут только пользователи прошедшие не сложную регистрацию
    Показать сообщения:    

    Патти Кейкс через торрент
    Скачать бесплатно Патти Кейкс
    Патти Кейкс скачать торрент
    Патти Кейкс смотреть онлайн
    Cкачать фильм Патти Кейкс бесплатно
    Патти Кейкс скачать торрент в хорошем качестве
    Патти Кейкс смотреть онлайн бесплатно в хорошем качестве


    Вы не можете начинать темы
    Вы не можете отвечать на сообщения
    Вы не можете редактировать свои сообщения
    Вы не можете удалять свои сообщения
    Вы не можете голосовать в опросах
    Вы не можете прикреплять файлы к сообщениям
    Вы можете скачивать файлы