новый адрес пиратбит piratbit
Мега распродажа FORZA HORIZON 4 ULTIMATE+ВСЕ DLC+ОНЛАЙН всего за 499р. 349 руб. (супер цена). Внимание количество ограничено!!!

iTunes

1+1

iTunes

мы

iTunes

1

iTunes

Чернобыль

iTunes

Ральф против интернета

Лицензия

ПШазам

Лицензия

Игра престолов

Лицензия

30
pack

ВАЖНО

!!Акция!!

Alien_RageХит недели

RePack

Resident Evil 21

ИГРА 18+

pack

RePack

Metro:Exodus

!!Акция!!

Alien_Rage

RePack

fifa19

RePack

Assassins Creed: Odyssey

RePack

NEED FOR SPEED™ PAYBACK

3 сезон

9 сезон

Бесстыжие 9 сезон

Все сериалы

все сериалы на PB.wtf

RePack

FAR CRY 5
Ребята, катастрофически не хватает 1900р. для оплаты серверов за Октябрь (всвязи с блокировками трафик упал в 3 раза), 1-2р., выручайте.
  

Горячая душа (Василий Векшин) [1959, СССР, драма, SATRip от AVP Studio] pb.wtf

Горячая душа через торрент pb.wtf

Размер: 745 MB | Добавлен: 1 год 11 мес. назад | Торрент скачан:16 раз
Скачать  

11-12-2017 07:26 Горячая душа Скачать торрент  

Горячая душа
Страна: СССР
Производство: Ленфильм

Жанр: драма
Год выпуска: 1959
Продолжительность: 01:23:41

Перевод: Не требуется
Cубтитры: нет
Оригинальная аудиодорожка: русский

Режиссер: Василий Векшин

В ролях:
Василий Векшин, Светлана Данильченко, Василий Меркурьев, Валентин Архипенко, Николай Емельянов, Олег Басилашвили, Алина Немченко, Михаил Петров, Игорь Владимиров, Николай Михайлов (II), В. Бобров, Олег Хроменков, Алексей Смирнов...
Об актёрах подробней

Описание:
Молодой сталевар Федор Шебалин ставит перед начальством вопросы по организации производства и выдвигает ряд предложений. Наивному парню приказывают работать, как положено. Парень не сдается, привлекает к своим экспериментам молодежь завода. Молодые сталевары решают провести опытную плавку самостоятельно. По недосмотру подручного металл преждевременно хлынул из печи.

Исходник: DVB
Качество видео: SATRip
Формат видео: AVI

Видео: 640х480 (4:3), 25 fps, XviD ~ 1108 kbps avg, 0.144 bit/pixel
Аудио: 48 kHz, MP3 2.0, 128 kbps

Раздача от:
Общее
Полное имя : Goryachaya.dusha.1959.SATRip-745_[New-team]_by_AVP_Studio.avi
Формат : AVI
Формат/Информация : Audio Video Interleave
Размер файла : 745 Мбайт
Продолжительность : 1 ч. 23 м.
Общий поток : 1246 Кбит/сек
Программа кодирования : VirtualDubMod 1.5.10.3 | www.virtualdub-fr.org || (build 2550/release)
Библиотека кодирования : VirtualDubMod build 2550/release

Видео
Идентификатор : 0
Формат : MPEG-4 Visual
Профиль формата : Advanced Simple@L5
Настройки формата : BVOP1 / Custom Matrix
Параметр BVOP формата : 1
Параметр QPel формата : Нет
Параметр GMC формата : Без точки перехода
Параметр матрицы формата : Выборочная
Идентификатор кодека : XVID
Идентификатор кодека/Подсказка : XviD
Продолжительность : 1 ч. 23 м.
Битрейт : 1108 Кбит/сек
Ширина : 640 пикселей
Высота : 480 пикселей
Соотношение сторон : 4:3
Частота кадров : 25,000 кадров/сек
Цветовое пространство : YUV
Субдискретизация насыщенности : 4:2:0
Битовая глубина : 8 бит
Тип развёртки : Прогрессивная
Метод сжатия : С потерями
Бит/(Пиксели*Кадры) : 0.144
Размер потока : 663 Мбайт (89%)
Библиотека кодирования : XviD 73

Аудио
Идентификатор : 1
Формат : MPEG Audio
Версия формата : Version 1
Профиль формата : Layer 3
Идентификатор кодека : 55
Идентификатор кодека/Подсказка : MP3
Продолжительность : 1 ч. 23 м.
Вид битрейта : Постоянный
Битрейт : 128 Кбит/сек
Каналы : 2 канала
Частота : 48,0 КГц
Частота кадров : 41,667 кадра/сек (1152 SPF)
Метод сжатия : С потерями
Размер потока : 76,6 Мбайт (10%)
Выравнивание : Соединение по промежуткам
Продолжительность промежутка : 40 мс. (1,00 видеокадр)
Время предзагрузки промежутка : 504 мс.
Библиотека кодирования : LAME3.99r
Настройки программы : -m s -V 4 -q 2 -lowpass 17 -b 128
pb.wtf



Скачать Горячая душа через торрент http://s012.radikal.ru/i319/1712/41/4866de5a0c26.png Скачать фильм Горячая душа через торрент бесплантно в хорошем качестве Описание:Молодой сталевар Федор Шебалин ставит перед начальством вопросы по организации производства и выдвигает ряд предложений. Наивному ... 5 10 1
Info! Золотая раздача, скачанное не засчитывается.
Торрент: Зарегистрирован [2017-12-11 07:26] · скачан: 16 раз
Статус: √ проверено
Размер: 745 MB
Как cкачать? Как скачать Горячая душа через торрент | qTorrent

% Раздел Тема Автор DL S | L
Кино СССР [ 1.09 GB ] Горячая душа [1959 СССР SATRip-AVC от AVP Studio] AVP Studio Скачать
1 | 0
Кино СССР [ 1.09 GB ] Горячая душа [1959 СССР SATRip от AVP Studio] AVP Studio Скачать
1 | 0
Лесбиянки [ 1.65 GB ] Все Новое Горячее в Душе 2 / All New Hot Showers 2 [2014 Lesbians Sex Toy Play Water Play WEB-DLRip Оригинал] 19alexei87 Скачать
1 | 0
Гонзо [ 1.48 GB ] Все Новые Горячий Душ / All New Hot Showers [2013 All Sex Compilation. Оригинал] Pir@tya2010 Скачать
1 | 0
Порно фильмы DVD [ 3.32 GB ] Горячие Души #5 / Hot Showers #5 [2002 Girl-Girl Legal Teen Hustler's Hot Showers Series DVD5] SKAV Скачать
1 | 0
Сцены из фильмов [ 129 MB ] Donna Bell / Бравый капитан с другом от души развлеклись с грудастой и очень горячей официанточкой. [2011 All Sex Oral Anal DP. DVDRip] SUPERXX Скачать
1 | 0
Секс с подростками [ 357 MB ] Жёсткая порка после горячего душа / Jelena [2011 Teen Amateur All Sex Students Shaved Natural Tits SiteRip] orton Скачать
1 | 0


>> Регистрируемся здесь <<






Отзывы и комментарии о схеме читаем и пишем здесь: ---> Отзывы и комментарии о схеме

Новые благодарочки в телеграм довольных пользователей:
скриншот   скриншот   скриншот   скриншот   скриншот
    Дорогой пользователь! Огромная просьба, поблагодарите релизера, оцените раздачу и оставьте свои комментарий, если Вы скачали Горячая душа через торрент бесплатно! Внесите свою лепту в развитие PiratBit!
    Комментировать посты могут только пользователи прошедшие не сложную регистрацию
    Показать сообщения:    

    Горячая душа через торрент
    Скачать бесплатно Горячая душа
    Горячая душа скачать торрент
    Горячая душа смотреть онлайн
    Cкачать фильм Горячая душа бесплатно
    Горячая душа скачать торрент в хорошем качестве
    Горячая душа смотреть онлайн бесплатно в хорошем качестве


    Вы не можете начинать темы
    Вы не можете отвечать на сообщения
    Вы не можете редактировать свои сообщения
    Вы не можете удалять свои сообщения
    Вы не можете голосовать в опросах
    Вы не можете прикреплять файлы к сообщениям
    Вы можете скачивать файлы