Ссылка на приватное зеркало всего за 1$. Внимание количество ограничено!!!

iTunes

iTunes

iTunes

1

iTunes

iTunes

iTunes

iTunes

iTunes

30
pack

$ от Little Big

ВАЖНО

!!Акция!!

Alien_RageХит недели

RePack

Resident Evil 21

ИГРА 18+

pack

RePack

jed

!!Акция!!

Alien_Rage

RePack

fifa19

RePack

Assassins Creed: Odyssey

RePack

NEED FOR SPEED™ PAYBACK

4 сезон

9 сезон

Бесстыжие 9 сезон

Все сериалы

все сериалы на PB.wtf

RePack

FAR CRY 5
  

Дом моих кошмаров / Bethany (Джеймс Каллен Брэссак) [2017, ужасы, WEB-DL 1080p] DUB [Лицензия / iTunes] pb.wtf

Дом моих кошмаров через торрент pb.wtf

Размер: 3.27 GB | Добавлен: 2 года 6 мес. назад | Торрент скачан:256 раз
Скачать  

11-12-2017 10:38 Дом моих кошмаров Скачать торрент  

Дом моих кошмаров / Bethany
««Я так ждала тебя»»

Год выпуска: 2017
Страна: США
Жанр: ужасы
Продолжительность: 01:30:06
Перевод: Дубляж [Лицензия / iTunes]
Режиссер: Джеймс Каллен Брэссак
В ролях:

Стефани Эстес, Зак Уорд, Том Грин, Шэннен Доэрти, Анна Харр, Леон Рассом, Кевин Портер (Nurse Foster), Кит Джардин (Harrison), Джеймс Каллен Брэссак (Hospital Visitor), Джош Браун (Hospital Staff), Джин Калелло (Nurse), Крисси Каннон (Maternity Nurse)
Описание:
Клэр вместе с мужем переезжает в свой старый дом после смерти матери. В доме своего детства к женщине возвращаются мрачные и тяжелые воспоминания, Клэр оказывается в тумане своего прошлого, в котором блуждает что-то совершенно непонятное и загадочное. И это что-то, похоже, пытается связаться с ней.
Рейтинг:

Качество: WEB-DL 1080p
Формат: MKV
Видео: AVC, 1920x1012 (1.897), 4705 kbps, 23,976 fps, 0,101 bpp
Аудио: русский / AC3 / 5.1 / 48 kHz / 384 kbps / |Дубляж|
Навигация по главам: есть

General
Unique ID : 180440160423260589882988150480666469482 (0x87BF82C4A2AF46B19511EDAB3969A46A)
Complete name : E:\Dom.Moih.Koshmarov.2017.P.1080p.WEB-DL.Rustorrents.mkv
Format : Matroska
Format version : Version 2
File size : 3.27 GiB
Duration : 1 h 30 min
Overall bit rate : 5 193 kb/s
Movie name : Rustorrents
Encoded date : UTC 2017-12-10 16:50:47
Writing application : mkvmerge v7.8.0 ('River Man') 32bit built on Apr 3 2015 12:11:22
Writing library : libebml v1.3.1 + libmatroska v1.4.2

Video
ID : 1
Format : AVC
Format/Info : Advanced Video Codec
Format profile : High@L4
Format settings, CABAC : Yes
Format settings, ReFrames : 4 frames
Codec ID : V_MPEG4/ISO/AVC
Duration : 1 h 30 min
Bit rate : 4 706 kb/s
Width : 1 920 pixels
Height : 1 012 pixels
Display aspect ratio : 1.897
Frame rate mode : Constant
Frame rate : 23.976 (24000/1001) FPS
Color space : YUV
Chroma subsampling : 4:2:0
Bit depth : 8 bits
Scan type : Progressive
Bits/(Pixel*Frame) : 0.101
Stream size : 2.96 GiB (91%)
Language : English
Default : Yes
Forced : No
Color range : Limited
Color primaries : BT.709
Transfer characteristics : BT.709
Matrix coefficients : BT.709

Audio
ID : 2
Format : AC-3
Format/Info : Audio Coding 3
Mode extension : CM (complete main)
Format settings, Endianness : Big
Codec ID : A_AC3
Duration : 1 h 30 min
Bit rate mode : Constant
Bit rate : 384 kb/s
Channel(s) : 6 channels
Channel positions : Front: L C R, Side: L R, LFE
Sampling rate : 48.0 kHz
Frame rate : 31.250 FPS (1536 spf)
Compression mode : Lossy
Stream size : 247 MiB (7%)
Title : iTunes
Language : Russian
Default : Yes
Forced : Yes

Menu
00:00:00.000 : en:Глава 1
00:05:36.294 : en:Глава 2
00:13:10.539 : en:Глава 3
00:17:41.184 : en:Глава 4
00:24:54.032 : en:Глава 5
00:32:40.540 : en:Глава 6
00:42:02.100 : en:Глава 7
00:49:51.527 : en:Глава 8
01:00:06.892 : en:Глава 9
01:08:42.073 : en:Глава 10
01:15:42.118 : en:Глава 11
01:24:01.075 : en:Глава 12
pb.wtf



Скачать Дом моих кошмаров через торрент http://i2.imageban.ru/out/2017/12/11/0ed479042b6f39cd28a65ad903d2fc34.jpg Скачать фильм Дом моих кошмаров через торрент бесплантно в хорошем качестве Описание: Клэр вместе с мужем переезжает в свой старый дом после смерти матери. В доме своего детства к женщине возвращаются мрачные и ... 7.8 10 4
Торрент: Зарегистрирован [2017-12-11 10:38] · скачан: 256 раз
Статус: √ проверено
Размер: 3.27 GB
Как cкачать? Как скачать Дом моих кошмаров через торрент | qTorrent

28-11-2019 20:33  

Отключить всю рекламу на сайте

11-12-2017 11:47 Дом моих кошмаров Скачать торрент  

по моему эта тему уже набила оскомину.pb.wtf



    Дорогой пользователь! Огромная просьба, поблагодарите релизера, оцените раздачу и оставьте свои комментарий, если Вы скачали Дом моих кошмаров через торрент бесплатно! Внесите свою лепту в развитие PiratBit!
    Комментировать посты могут только пользователи прошедшие не сложную регистрацию
    Показать сообщения:    

    Дом моих кошмаров через торрент
    Скачать бесплатно Дом моих кошмаров
    Дом моих кошмаров скачать торрент
    Дом моих кошмаров смотреть онлайн
    Cкачать фильм Дом моих кошмаров бесплатно
    Дом моих кошмаров скачать торрент в хорошем качестве
    Дом моих кошмаров смотреть онлайн бесплатно в хорошем качестве


    Вы не можете начинать темы
    Вы не можете отвечать на сообщения
    Вы не можете редактировать свои сообщения
    Вы не можете удалять свои сообщения
    Вы не можете голосовать в опросах
    Вы не можете прикреплять файлы к сообщениям
    Вы можете скачивать файлы