Всегда рабочее зеркало без VPN и Proxy просто перед .vidak.icu напиши любое слово или цифру, Пример http://aqny.vidak.icu

MVO

Лицензия

1 сезон

1

1 сезон

iTunes

1 сезон

13

1 сезон

Deluxe

pack

Рекомендуем

Пиратка

30

ВАЖНО

RePack

MK11

RePack

jed

RePack

fifa19

RePack

RDR2

RePack

NEED FOR SPEED™ PAYBACK

Кинопоиск HD

6 сезон

 Острые козырьки 6 сезон

Все сериалы

все сериалы на PB.wtf

RePack

FAR CRY 5
  
Magnet ссылка

Время цыган / Dom za vesanje (Эмир Кустурица) [1988 г, фэнтези, драма, комедия, криминал, HDRip] DUB, DVO pb.wtf

Время цыган через торрент pb.wtf

Размер: 2.18 GB | Добавлен: 4 года 6 мес. назад | Торрент скачан:47 раз
Смотреть онлайн Время цыган | Скачать    Ребята, помогите собрать деньги на оплату серверов!!!

11-12-2017 13:25 Время цыган Скачать торрент  

Время цыган / Dom za vesanje
Год выпуска: 1988
Страна: Югославия, Великобритания, Италия
Жанр: фэнтези, драма, комедия, криминал
Продолжительность: 02:22:00
Перевод: Дублированный, профессиональный двухголосый

Режиссер: Эмир Кустурица

rating

В ролях: Давор Дуймович, Бора Тодорович, Любица Аджович, Хусния Хасимович, Синоличка Трпкова, Забит Мемедов, Эльвира Сали, Суада Карисик, Предраг Лакович, Мирсад Зулич, Седрийе Халим, Сабан Рожан, Бранко Джурич, Ирфан Джагли, Юлиана Демирович, Ядранка Аджович

Описание: Перхана, обладающего способностью взглядом передвигать предметы, воспитывает бабушка, сама наделенная даром лечить людей без лекарств. Есть у Перхана еще дядя, безнадежный игрок, не знающий, что такое удача, и сестра-калека. Появляется у Перхана и любовь, но родители не отдают за него дочь — Перхан беден, живет честно, а у таких деньги не заводятся. И он отправляется вместе с богатым цыганским бароном Ахметом в Италию, чтобы по дороге отдать сестру в больницу в Любляне, заработать денег, построить дом и жениться на любимой…

Качество: HDRip
Формат: AVI
Видео: XviD, 1800 Кбит/с, 720x400, 24 кадр/с
Аудио #1: AC3, 2 ch, 192 Кбит/с | Дублированный (Киностудия им. М.Горького, 1991 г.)
Аудио #2: AC3, 2 ch, 192 Кбит/с | Профессиональный двухголосый (СВ-Дубль по заказу ТВ "Культура", 2006г.)
Релиз от: Koenig
скриншот   скриншот   скриншот   скриншот   скриншот   скриншот  

Общее
Полное имя : Time.Of.The.Gypsies.1988.HDRip.avi
Формат : AVI
Формат/Информация : Audio Video Interleave
Профиль формата : OpenDML
Размер файла : 2,18 Гбайт
Продолжительность : 2 ч. 22 м.
Общий поток : 2202 Кбит/сек
Программа кодирования : VirtualDubMod 1.5.10.2 (build 2540/release)
Библиотека кодирования : VirtualDubMod build 2540/release

Видео
Идентификатор : 0
Формат : MPEG-4 Visual
Профиль формата : Advanced Simple@L5
Параметр BVOP формата : 1
Параметр QPel формата : Нет
Параметр GMC формата : Без точки перехода
Параметр матрицы формата : Выборочная
Идентификатор кодека : XVID
Идентификатор кодека/Подсказка : XviD
Продолжительность : 2 ч. 22 м.
Битрейт : 1800 Кбит/сек
Ширина : 720 пикселей
Высота : 400 пикселей
Соотношение сторон : 16:9
Частота кадров : 24,000 кадра/сек
Цветовое пространство : YUV
Субдискретизация насыщенности : 4:2:0
Битовая глубина : 8 бит
Тип развёртки : Прогрессивная
Метод сжатия : С потерями
Бит/(Пиксели*Кадры) : 0.260
Размер потока : 1,79 Гбайт (82%)
Библиотека кодирования : XviD 65

Аудио #1
Идентификатор : 1
Формат : AC-3
Формат/Информация : Audio Coding 3
Параметр Endianness формата : Big
Идентификатор кодека : 2000
Продолжительность : 2 ч. 22 м.
Вид битрейта : Постоянный
Битрейт : 192 Кбит/сек
Каналы : 2 канала
Расположение каналов : Front: L R
Частота : 48,0 КГц
Частота кадров : 31,250 кадров/сек (1536 spf)
Битовая глубина : 16 бит
Метод сжатия : С потерями
Размер потока : 195 Мбайт (9%)
Выравнивание : Разделение по промежуткам
Продолжительность промежутка : 42 мс. (1,00 видеокадр)
Время предзагрузки промежутка : 500 мс.
ServiceKind/String : Complete Main

Аудио #2
Идентификатор : 2
Формат : AC-3
Формат/Информация : Audio Coding 3
Параметр Endianness формата : Big
Идентификатор кодека : 2000
Продолжительность : 2 ч. 21 м.
Вид битрейта : Постоянный
Битрейт : 192 Кбит/сек
Каналы : 2 канала
Расположение каналов : Front: L R
Частота : 48,0 КГц
Частота кадров : 31,250 кадров/сек (1536 spf)
Битовая глубина : 16 бит
Метод сжатия : С потерями
Размер потока : 195 Мбайт (9%)
Выравнивание : Разделение по промежуткам
Продолжительность промежутка : 42 мс. (1,00 видеокадр)
Время предзагрузки промежутка : 500 мс.
ServiceKind/String : Complete Main

pb.wtf



Скачать Время цыган через торрент https://pic1.kartinco.top/images/11/vb5lk.jpg Скачать, смотреть онлайн Время цыган бесплантно в хорошем качестве Описание: Перхана, обладающего способностью взглядом передвигать предметы, воспитывает бабушка, сама наделенная даром лечить людей без ... 7.8 10 4
Торрент: Зарегистрирован [2017-12-11 13:25] · скачан: 47 раз
Статус: √ проверено
Размер: 2.18 GB
Как cкачать? Как скачать Время цыган через торрент | UTorrent

% Раздел Тема Автор DL S | L
Фильмы [HD 720p, 1080p] (Хороший звук DUB, MVO) [ 8.33 GB ] Время цыган / Dom za vesanje [1988 г BDRip 720p] DUB DVO koenig Скачать
1 | 0

28-11-2019 20:33  

Отключить всю рекламу на сайте

14-01-2018 11:02 Время цыган Скачать торрент  

Блестящий фильм великого режиссера. Потрясающие актерские работы, знаменитая музыка. После его выхода на экраны цыганские общины Венгрии и Румынии добились от своих правительств запрета на въезд в эти страны Эмира Кустурицы. Правда больно колет глаза. Вот такая демократия. Обязательно смотрите замечательный фильм живого классика. Спасибо за раздачу.pb.wtf



    Дорогой пользователь! Огромная просьба, поблагодарите релизера, оцените раздачу и оставьте свои комментарий, если Вы скачали Время цыган через торрент бесплатно!
    Комментировать посты могут только пользователи прошедшие не сложную регистрацию
    Показать сообщения:    

    Время цыган через торрент
    Скачать бесплатно Время цыган
    Время цыган скачать торрент
    Время цыган смотреть онлайн
    Cкачать фильм Время цыган бесплатно
    Время цыган скачать торрент в хорошем качестве
    Время цыган смотреть онлайн бесплатно в хорошем качестве


    Вы не можете начинать темы
    Вы не можете отвечать на сообщения
    Вы не можете редактировать свои сообщения
    Вы не можете удалять свои сообщения
    Вы не можете голосовать в опросах
    Вы не можете прикреплять файлы к сообщениям
    Вы можете скачивать файлы