Ссылка на приватное зеркало нашего сайта всего за 1$. Внимание количество ограничено!!!

2 сезон

iTunes

1 сезон

1

iTunes

iTunes

iTunes

1 сезон

RePack

30

ИГРА 18+

pack

ВАЖНО

!!Акция!!

Alien_RageХит недели

RePack

MK11
pack

Забери бонус

RePack

jed

!!Акция!!

Alien_Rage

RePack

fifa19

RePack

Assassins Creed: Odyssey

RePack

NEED FOR SPEED™ PAYBACK

4 сезон

9 сезон

Бесстыжие 9 сезон

Все сериалы

все сериалы на PB.wtf

RePack

FAR CRY 5
  

Шесть жён Генри Лефэя / The Six Wives of Henry Lefay (Ховард Гулд) [2009, драма, комедия, BDRip 720p by msltel] MVO pb.wtf

Шесть жён Генри Лефэя через торрент pb.wtf

Размер: 3.16 GB | Добавлен: 2 года 10 мес. назад | Торрент скачан:64 раза
Скачать  

12-12-2017 09:04 Шесть жён Генри Лефэя Скачать торрент  

Название: Шесть жён Генри Лефэя
Оригинальное название: The Six Wives of Henry Lefay
Год выпуска: 2009
Страна: США
Жанр: драма, комедия
Продолжительность: 01:35:11
Перевод: профессиональный многоголосый

Режиссер: Ховард Гулд
В ролях: Элиша Катберт, Тим Аллен, Энди МакДауэлл, Эрик Кристиан Олсен, Дженна Элфмэн, Паз Вега, Дженна Деван, Коннор Фукс, Келли Гарнер, Дэвид Гир

О фильме: Состоятельный торговец Генри Лефэй бесследно пропадает во время отпуска. Предположив, что он мёртв, его дочь возвращается домой, чтобы начать подготовку к похоронам. Узнав печальную весть жена Генри и пять её предшественниц начинают спор, кого из них покойный любил больше, и кто будет его хоронить...



Качество: BDRip 720p
Формат: MKV
Видео: MPEG-4 AVC, 3852 Кбит/с, 1280x534
Аудио 1: русский, AC3, 448 kbps, 6 ch, 48 kHz [профессиональный многоголосый]
Аудио 2: английский, AC3, 448 kbps, 6 ch, 48 kHz [оригинал]
Субтитры: русские
Неименованные главы/чаптеры.
Общее
Уникальный идентификатор : 207014622037725131110985185544777252702 (0x9BBD90E22796F9E3A90E0FE558243F5E)
Полное имя : D:\Video\Шесть жён.2009.BDRip.720p by msltel.mkv
Формат : Matroska
Версия формата : Version 4 / Version 2
Размер файла : 3,16 Гбайт
Продолжительность : 1 ч. 35 м.
Общий поток : 4750 Кбит/сек
Название фильма : Rip by msltel
Дата кодирования : UTC 2017-12-12 03:10:30
Программа кодирования : mkvmerge v8.2.0 ('World of Adventure') 64bit
Библиотека кодирования : libebml v1.3.1 + libmatroska v1.4.2

Видео
Идентификатор : 1
Формат : AVC
Формат/Информация : Advanced Video Codec
Профиль формата : High@L4.1
Настройки формата : CABAC / 9 Ref Frames
Параметр CABAC формата : Да
Параметр RefFrames формата : 9 кадров
Идентификатор кодека : V_MPEG4/ISO/AVC
Продолжительность : 1 ч. 35 м.
Битрейт : 3852 Кбит/сек
Ширина : 1280 пикселей
Высота : 534 пикселя
Соотношение сторон : 2,40:1
Режим частоты кадров : Постоянный
Частота кадров : 23,976 (24000/1001) кадра/сек
Цветовое пространство : YUV
Субдискретизация насыщенности : 4:2:0
Битовая глубина : 8 бит
Тип развёртки : Прогрессивная
Бит/(Пиксели*Кадры) : 0.235
Размер потока : 2,56 Гбайт (81%)
Библиотека кодирования : x264 core 146 r2538 121396c
Настройки программы : cabac=1 / ref=9 / deblock=1:-3:-2 / analyse=0x3:0x113 / me=umh / subme=11 / psy=1 / psy_rd=1.00:0.15 / mixed_ref=1 / me_range=32 / chroma_me=1 / trellis=2 / 8x8dct=1 / cqm=0 / deadzone=21,11 / fast_pskip=0 / chroma_qp_offset=-3 / threads=6 / lookahead_threads=1 / sliced_threads=0 / nr=0 / decimate=1 / interlaced=0 / bluray_compat=0 / constrained_intra=0 / bframes=13 / b_pyramid=2 / b_adapt=2 / b_bias=0 / direct=1 / weightb=1 / open_gop=0 / weightp=2 / keyint=230 / keyint_min=23 / scenecut=40 / intra_refresh=0 / rc_lookahead=40 / rc=crf / mbtree=0 / crf=17.5 / qcomp=0.60 / qpmin=0 / qpmax=69 / qpstep=4 / vbv_maxrate=62500 / vbv_bufsize=78125 / crf_max=0.0 / nal_hrd=none / filler=0 / ip_ratio=1.40 / pb_ratio=1.30 / aq=1:1.00
Язык : English
Default : Да
Forced : Нет

Аудио #1
Идентификатор : 2
Формат : AC-3
Формат/Информация : Audio Coding 3
Идентификатор кодека : A_AC3
Продолжительность : 1 ч. 35 м.
Вид битрейта : Постоянный
Битрейт : 448 Кбит/сек
Каналы : 6 каналов
Расположение каналов : Front: L C R, Side: L R, LFE
Частота : 48,0 КГц
Частота кадров : 31,250 кадров/сек (1536 SPF)
Битовая глубина : 16 бит
Метод сжатия : С потерями
Размер потока : 305 Мбайт (9%)
Заголовок : MVO
Язык : Russian
ServiceKind/String : Complete Main
Default : Да
Forced : Нет

Аудио #2
Идентификатор : 3
Формат : AC-3
Формат/Информация : Audio Coding 3
Идентификатор кодека : A_AC3
Продолжительность : 1 ч. 35 м.
Вид битрейта : Постоянный
Битрейт : 448 Кбит/сек
Каналы : 6 каналов
Расположение каналов : Front: L C R, Side: L R, LFE
Частота : 48,0 КГц
Частота кадров : 31,250 кадров/сек (1536 SPF)
Битовая глубина : 16 бит
Метод сжатия : С потерями
Размер потока : 305 Мбайт (9%)
Заголовок : original
Язык : English
ServiceKind/String : Complete Main
Default : Нет
Forced : Нет

Текст
Идентификатор : 4
Формат : UTF-8
Идентификатор кодека : S_TEXT/UTF8
Идентификатор кодека/Информация : UTF-8 Plain Text
Продолжительность : 1 ч. 27 м.
Битрейт : 99 бит/сек
ElementCount : 1264
Размер потока : 64,2 Кбайт (0%)
Заголовок : русские
Язык : Russian
Default : Нет
Forced : Нет

Меню
00:00:00.000 : :Chapter 01
00:02:39.241 : :Chapter 02
00:10:31.172 : :Chapter 03
00:16:47.840 : :Chapter 04
00:20:40.071 : :Chapter 05
00:24:50.614 : :Chapter 06
00:30:54.643 : :Chapter 07
00:37:34.543 : :Chapter 08
00:40:37.852 : :Chapter 09
00:46:38.670 : :Chapter 10
00:51:45.893 : :Chapter 11
01:00:21.367 : :Chapter 12
01:05:33.179 : :Chapter 13
01:11:19.399 : :Chapter 14
01:18:27.661 : :Chapter 15
01:28:08.323 : :Chapter 16
pb.wtf



Скачать Шесть жён Генри Лефэя через торрент http://s018.radikal.ru/i510/1712/63/1edd031970b0.jpg Скачать фильм Шесть жён Генри Лефэя через торрент бесплантно в хорошем качестве О фильме: Состоятельный торговец Генри Лефэй бесследно пропадает во время отпуска. Предположив, что он мёртв, его дочь возвращается домой, ... 5 10 1
Info! Золотая раздача, скачанное не засчитывается.
Торрент: Зарегистрирован [2017-12-12 09:04] · скачан: 64 раз
Статус: √ проверено
Размер: 3.16 GB
Как cкачать? Как скачать Шесть жён Генри Лефэя через торрент | qTorrent

% Раздел Тема Автор DL S | L
Фильмы [HD 720p, 1080p] (Хороший звук DUB, MVO) [ 9.98 GB ] Шесть жён Генри Лефэя / The Six Wives of Henry Lefay [2009 BDRip 1080p by msltel] MVO msltel Скачать
1 | 0

28-11-2019 20:33  

Отключить всю рекламу на сайте

    Дорогой пользователь! Огромная просьба, поблагодарите релизера, оцените раздачу и оставьте свои комментарий, если Вы скачали Шесть жён Генри Лефэя через торрент бесплатно! Внесите свою лепту в развитие PiratBit!
    Комментировать посты могут только пользователи прошедшие не сложную регистрацию
    Показать сообщения:    

    Шесть жён Генри Лефэя через торрент
    Скачать бесплатно Шесть жён Генри Лефэя
    Шесть жён Генри Лефэя скачать торрент
    Шесть жён Генри Лефэя смотреть онлайн
    Cкачать фильм Шесть жён Генри Лефэя бесплатно
    Шесть жён Генри Лефэя скачать торрент в хорошем качестве
    Шесть жён Генри Лефэя смотреть онлайн бесплатно в хорошем качестве


    Вы не можете начинать темы
    Вы не можете отвечать на сообщения
    Вы не можете редактировать свои сообщения
    Вы не можете удалять свои сообщения
    Вы не можете голосовать в опросах
    Вы не можете прикреплять файлы к сообщениям
    Вы можете скачивать файлы