Ссылка на приватное зеркало нашего сайта всего за 1$. Внимание количество ограничено!!!

2 сезон

iTunes

1 сезон

1

iTunes

iTunes

iTunes

1 сезон

RePack

30

ИГРА 18+

pack

ВАЖНО

!!Акция!!

Alien_RageХит недели

RePack

MK11
pack

Забери бонус

RePack

jed

!!Акция!!

Alien_Rage

RePack

fifa19

RePack

Assassins Creed: Odyssey

RePack

NEED FOR SPEED™ PAYBACK

4 сезон

9 сезон

Бесстыжие 9 сезон

Все сериалы

все сериалы на PB.wtf

RePack

FAR CRY 5
  

Впусти меня / Låt den rätte komma in (Томас Альфредсон) [2008 г., ужасы, драма, мелодрама, BDRip 1080p][MVO][AVO] pb.wtf

Впусти меня через торрент pb.wtf

Размер: 10.65 GB | Добавлен: 2 года 10 мес. назад | Торрент скачан:54 раза
Скачать  

12-12-2017 10:00 Впусти меня Скачать торрент  

Впусти меня / Låt den rätte komma in

Год выпуска: 2008
Страна: Швеция / EFTI, Sandrew Metronome Distribution Sverige AB, Filmpool Nord
Жанр: ужасы, драма, мелодрама
Продолжительность: 01:54:59
Перевод: Профессиональный (многоголосый закадровый) [Киномания], авторский (одноголосый) [Юрий Немахов]
Субтитры: русские, английские вшитые отключаемые

Режиссер: Томас Альфредсон

rating

В ролях: Каре Хедебрант, Лина Леандерссон, Пер Рагнар, Хенрик Даль, Карин Бергкуист, Питер Карлберг, Ика Норд, Микаэль Рахм, Карл-Роберт Линдгрен, Андерс Т. Педу

Описание: Двенадцатилетний Оскар живет в небольшой деревушке неподалеку от Стокгольма. Днем он подвергается насмешкам и терпеливо сносит унизительные пинки и затрещины от одноклассников, зато потом Оскар мечтает о мести.

Однажды ночью Оскар знакомится с девочкой по имени Эли. Она его новая соседка. Два изгоя мгновенно становятся друзьями, Эли учит Оскара храбрости, а Оскар пробуждает в ней жажду любви. Но Эли, увы, этого недостаточно — ее мучает жажда крови.

Качество: BDRip 1080p
Формат: MKV
Видео кодек: AVC
Аудио кодек: AC3
Видео: AVC at 10,1 Мбит/сек Aspect: 1920 x 816 (2.353) at 24.000 fps
Аудио #1: русский, AC3 5.1, 48 kHz, 448 kbps | MVO (Киномания)
Аудио #2: русский, AC3 5.1, 48 kHz, 448 kbps | AVO (Немахов)
Аудио #3: английский, DTS 5.1, 48 kHz, 1510 kbps
Аудио #4: шведский, DTS 5.1, 48 kHz, 768 kbps
скриншот   скриншот   скриншот   скриншот   скриншот   скриншот  

Общее
Уникальный идентификатор : 200605121546454730618217113189985492941 (0x96EB241C66D6FE939153B96746CB1FCD)
Полное имя : D:\PiratBit\Vpusti.menya.2008.x264.BDRip(1080p).mkv
Формат : Matroska
Версия формата : Version 2
Размер файла : 10,6 Гбайт
Продолжительность : 1 ч. 54 м.
Общий поток : 13,3 Мбит/сек
Дата кодирования : UTC 2009-04-28 08:21:20
Программа кодирования : mkvmerge v2.7.0 ('Do It Again') built on Apr 15 2009 00:27:10
Библиотека кодирования : libebml v0.7.7 + libmatroska v0.8.1

Видео
Идентификатор : 1
Формат : AVC
Формат/Информация : Advanced Video Codec
Профиль формата : High@L4.1
Настройки формата : CABAC / 4 Ref Frames
Параметр CABAC формата : Да
Параметр RefFrames формата : 4 кадра
Идентификатор кодека : V_MPEG4/ISO/AVC
Продолжительность : 1 ч. 54 м.
Битрейт : 10,1 Мбит/сек
Ширина : 1920 пикселей
Высота : 816 пикселей
Соотношение сторон : 2,35:1
Режим частоты кадров : Постоянный
Частота кадров : 24,000 кадра/сек
Цветовое пространство : YUV
Субдискретизация насыщенности : 4:2:0
Битовая глубина : 8 бит
Тип развёртки : Прогрессивная
Бит/(Пиксели*Кадры) : 0.269
Размер потока : 7,89 Гбайт (74%)
Заголовок : 视频
Библиотека кодирования : x264 core 65 r1069M ed32ad2
Настройки программы : cabac=1 / ref=4 / deblock=1:-2:-1 / analyse=0x3:0x113 / me=hex / subme=7 / psy_rd=1.0:0.0 / mixed_ref=1 / me_range=16 / chroma_me=1 / trellis=1 / 8x8dct=1 / cqm=0 / deadzone=21,11 / chroma_qp_offset=-2 / threads=12 / nr=0 / decimate=1 / mbaff=0 / bframes=16 / b_pyramid=1 / b_adapt=1 / b_bias=0 / direct=3 / wpredb=1 / keyint=250 / keyint_min=25 / scenecut=40(pre) / rc=2pass / bitrate=10101 / ratetol=1.0 / qcomp=0.60 / qpmin=10 / qpmax=51 / qpstep=4 / cplxblur=20.0 / qblur=0.5 / ip_ratio=1.40 / pb_ratio=1.30 / aq=1:1.00
Язык : Swedish
Default : Да
Forced : Нет

Аудио #1
Идентификатор : 2
Формат : AC-3
Формат/Информация : Audio Coding 3
Идентификатор кодека : A_AC3
Продолжительность : 1 ч. 54 м.
Вид битрейта : Постоянный
Битрейт : 448 Кбит/сек
Каналы : 6 каналов
Расположение каналов : Front: L C R, Side: L R, LFE
Частота : 48,0 КГц
Частота кадров : 31,250 кадров/сек (1536 SPF)
Битовая глубина : 16 бит
Метод сжатия : С потерями
Размер потока : 368 Мбайт (3%)
Заголовок : Киномания
Язык : Russian
ServiceKind/String : Complete Main
Default : Да
Forced : Нет

Аудио #2
Идентификатор : 3
Формат : AC-3
Формат/Информация : Audio Coding 3
Идентификатор кодека : A_AC3
Продолжительность : 1 ч. 54 м.
Вид битрейта : Постоянный
Битрейт : 448 Кбит/сек
Каналы : 6 каналов
Расположение каналов : Front: L C R, Side: L R, LFE
Частота : 48,0 КГц
Частота кадров : 31,250 кадров/сек (1536 SPF)
Битовая глубина : 16 бит
Метод сжатия : С потерями
Размер потока : 368 Мбайт (3%)
Заголовок : Немахов
Язык : Russian
ServiceKind/String : Complete Main
Default : Нет
Forced : Нет

Аудио #3
Идентификатор : 4
Формат : DTS
Формат/Информация : Digital Theater Systems
Идентификатор кодека : A_DTS
Продолжительность : 1 ч. 54 м.
Вид битрейта : Постоянный
Битрейт : 1510 Кбит/сек
Каналы : 6 каналов
Расположение каналов : Front: L C R, Side: L R, LFE
Частота : 48,0 КГц
Частота кадров : 93,750 кадра/сек (512 SPF)
Битовая глубина : 24 бит
Метод сжатия : С потерями
Размер потока : 1,21 Гбайт (11%)
Язык : English
Default : Нет
Forced : Нет

Аудио #4
Идентификатор : 5
Формат : DTS
Формат/Информация : Digital Theater Systems
Идентификатор кодека : A_DTS
Продолжительность : 1 ч. 54 м.
Вид битрейта : Постоянный
Битрейт : 768 Кбит/сек
Каналы : 6 каналов
Расположение каналов : Front: L C R, Side: L R, LFE
Частота : 48,0 КГц
Частота кадров : 93,750 кадра/сек (512 SPF)
Битовая глубина : 24 бит
Метод сжатия : С потерями
Размер потока : 631 Мбайт (6%)
Язык : Swedish
Default : Нет
Forced : Нет

Текст #1
Идентификатор : 6
Формат : UTF-8
Идентификатор кодека : S_TEXT/UTF8
Идентификатор кодека/Информация : UTF-8 Plain Text
Язык : Russian
Default : Да
Forced : Нет

Текст #2
Идентификатор : 7
Формат : UTF-8
Идентификатор кодека : S_TEXT/UTF8
Идентификатор кодека/Информация : UTF-8 Plain Text
Default : Нет
Forced : Нет

pb.wtf



Скачать Впусти меня через торрент http://pic1.kartinco.top/images/11/tythr.jpg Скачать фильм Впусти меня через торрент бесплантно в хорошем качестве Описание: Двенадцатилетний Оскар живет в небольшой деревушке неподалеку от Стокгольма. Днем он подвергается насмешкам и терпеливо сносит ... 10 10 4
Торрент: Зарегистрирован [2017-12-12 10:00] · скачан: 54 раз
Статус: T временная
Размер: 10.65 GB
Как cкачать? Как скачать Впусти меня через торрент | qTorrent

% Раздел Тема Автор DL S | L
Фильмы 2006-2008 [ 2.16 GB ] Впусти меня / Låt den rätte komma in [2008 HDRip многоголосый закадровый " R5"] coc900 Скачать
1 | 0

28-11-2019 20:33  

Отключить всю рекламу на сайте

12-12-2017 11:38 Впусти меня Скачать торрент  

Люблю этот фильм, первый скрин эта сцена очень натуралистично снята, и в целом фильм выглядит как псевдо документалка, снято на дешевую камеру от чего складывается ощущение, что это запись с камеры наблюдения, будто это архивы какие то. Многим не зайдет, от чего ценность данного фильма возрастает. ненавижу мейнстрим каппаpb.wtf



12-12-2017 13:33 Впусти меня Скачать торрент  

Топик был перенесен из форума Фильмы 2006-2008 в форум Фильмы [HD 720p, 1080p] (Хороший звук DUB, MVO)


schultzpb.wtf



    Дорогой пользователь! Огромная просьба, поблагодарите релизера, оцените раздачу и оставьте свои комментарий, если Вы скачали Впусти меня через торрент бесплатно! Внесите свою лепту в развитие PiratBit!
    Комментировать посты могут только пользователи прошедшие не сложную регистрацию
    Показать сообщения:    

    Впусти меня через торрент
    Скачать бесплатно Впусти меня
    Впусти меня скачать торрент
    Впусти меня смотреть онлайн
    Cкачать фильм Впусти меня бесплатно
    Впусти меня скачать торрент в хорошем качестве
    Впусти меня смотреть онлайн бесплатно в хорошем качестве


    Вы не можете начинать темы
    Вы не можете отвечать на сообщения
    Вы не можете редактировать свои сообщения
    Вы не можете удалять свои сообщения
    Вы не можете голосовать в опросах
    Вы не можете прикреплять файлы к сообщениям
    Вы можете скачивать файлы