2 сезон

iTunes

MVO

1

2 сезон

iTunes

iTunes

1 сезон

RePack

30

Новинка

ВАЖНО

ИГРА 18+

pack

RePack

MK11
pack

Легкие деньги

RePack

jed

RePack

fifa19

RePack

RDR2

RePack

NEED FOR SPEED™ PAYBACK

4 сезон

9 сезон

Бесстыжие 9 сезон

Все сериалы

все сериалы на PB.wtf

RePack

FAR CRY 5

Anonymous, доброй ночи, мы не успеваем собрать деньги на оплату серверов за декабрь и январь, помогите нам пожалуйста в это трудное время. В качестве благодарности мы отключим Вам всю рекламу на сайте (укажите свой ник в строку Ваше имя)!

×
  
Magnet ссылка

Хозяин морей: На краю Земли / Master and Commander: The Far Side of the World (Питер Уир) [2003 г., боевик, драма, приключения, военный, BDRip 720p 60 FPS, Дубляж] pb.wtf

Хозяин морей: На краю Земли через торрент pb.wtf

Качают: 1 [ 229 KB/s ]
Размер: 5.19 GB | Добавлен: 3 года 1 мес. назад | Торрент скачан:311 раз
Скачать  

12-12-2017 12:51 Хозяин морей: На краю Земли Скачать торрент  

Хозяин морей: На краю Земли / Master and Commander: The Far Side of the World
Год выпуска: 2003
Страна: США
Жанр: боевик, драма, приключения, военный
Продолжительность: 02:18:20
Перевод: Дубляж

Режиссер: Питер Уир

rating

В ролях: Расселл Кроу, Пол Беттани, Джеймс Д`Арси, Эдвард Вудалл, Крис Ларкин, Макс Пиркис, Джек Рэндолл, Макс Бениц, Ли Инглби, Ричард Пейтс, Роберт Паг, Ричард МакКейб

Описание: Действие фильма разворачивается во время наполеоновских войн. Военный парусник Ее Величества «Сюрприз», бороздящий просторы Атлантики, был неожиданно атакован огромным неизвестным кораблем, появившимся из тумана. Благодаря смелости и находчивости команды «Сюрпризу» удается уйти от смерти. Несмотря на тяжелые повреждения и потери, капитан Джек Обри по прозвищу Счастливчик принимает решение преследовать врага и устремляется в погоню, которая уведет его на край света. На кону репутация Джека, его жизнь и жизнь его команды…

Качество: BDRip 720p 60 FPS
Формат: MKV
Видео кодек: H.264
Аудио кодек: AC3
Видео: 1280x536 (2.40:1), 5000 kbps, 59,940 fps
Аудио#1: Аудио №1: русский / AC3 / 5.1 / 48 kHz / 192 kbps / ||
Аудио#2: Аудио №2: английский / AC3 / 5.1 / 48 kHz / 192 kbps /
Релиз от: Аман Абди
скриншот   скриншот  
скриншот  
скриншот  

General
Complete name : E:\Хозяин морей. На краю Земли BDRip 720p 60 FPS.mkv
Format : Matroska
Format version : Version 2
File size : 5.19 GiB
Duration : 2 h 18 min
Overall bit rate : 5 373 kb/s
Writing application : libmatroska 1.4.1
Writing library : SolveigMM Matroska Muxer Version 1.0.1502.18

Video
ID : 1
Format : AVC
Format/Info : Advanced Video Codec
Format profile : High@L4.1
Format settings, CABAC : Yes
Format settings, ReFrames : 5 frames
Codec ID : V_MPEG4/ISO/AVC
Duration : 2 h 18 min
Bit rate : 5 000 kb/s
Width : 1 280 pixels
Height : 536 pixels
Display aspect ratio : 2.40:1
Frame rate mode : Constant
Frame rate : 59.940 (59940/1000) FPS
Color space : YUV
Chroma subsampling : 4:2:0
Bit depth : 8 bits
Scan type : Progressive
Bits/(Pixel*Frame) : 0.122
Stream size : 4.72 GiB (91%)
Writing library : x264 core 146 r2538 121396c
Encoding settings : cabac=1 / ref=5 / deblock=1:-3:-3 / analyse=0x3:0x113 / me=umh / subme=8 / psy=1 / psy_rd=1.00:0.25 / mixed_ref=1 / me_range=32 / chroma_me=1 / trellis=1 / 8x8dct=1 / cqm=0 / deadzone=6,6 / fast_pskip=1 / chroma_qp_offset=-4 / threads=12 / lookahead_threads=2 / sliced_threads=0 / nr=0 / decimate=0 / interlaced=0 / bluray_compat=0 / constrained_intra=0 / bframes=3 / b_pyramid=2 / b_adapt=2 / b_bias=0 / direct=3 / weightb=1 / open_gop=0 / weightp=2 / keyint=250 / keyint_min=23 / scenecut=40 / intra_refresh=0 / rc_lookahead=50 / rc=2pass / mbtree=1 / bitrate=5000 / ratetol=1.0 / qcomp=0.80 / qpmin=0 / qpmax=69 / qpstep=4 / cplxblur=20.0 / qblur=0.5 / vbv_maxrate=14000 / vbv_bufsize=14000 / nal_hrd=none / filler=0 / ip_ratio=1.10 / aq=1:0.50
Language : English
Default : No
Forced : No

Audio #1
ID : 2
Format : AC-3
Format/Info : Audio Coding 3
Mode extension : CM (complete main)
Format settings, Endianness : Big
Codec ID : A_AC3
Duration : 2 h 18 min
Bit rate mode : Constant
Bit rate : 192 kb/s
Channel(s) : 2 channels
Channel positions : Front: L R
Sampling rate : 44.1 kHz
Frame rate : 28.711 FPS (1536 spf)
Bit depth : 16 bits
Compression mode : Lossy
Stream size : 190 MiB (4%)
Language : Russian
Default : No
Forced : No

Audio #2
ID : 3
Format : AC-3
Format/Info : Audio Coding 3
Mode extension : CM (complete main)
Format settings, Endianness : Big
Codec ID : A_AC3
Duration : 2 h 18 min
Bit rate mode : Constant
Bit rate : 192 kb/s
Channel(s) : 2 channels
Channel positions : Front: L R
Sampling rate : 44.1 kHz
Frame rate : 28.711 FPS (1536 spf)
Bit depth : 16 bits
Compression mode : Lossy
Stream size : 190 MiB (4%)
Language : English
Default : No
Forced : No

pb.wtf



Скачать Хозяин морей: На краю Земли через торрент http://lostpic.net/orig_images/9/2/5/9255364203589985003ba1e92ce98022.png Скачать фильм Хозяин морей: На краю Земли через торрент бесплантно в хорошем качестве Описание: Действие фильма разворачивается во время наполеоновских войн. Военный парусник Ее Величества «Сюрприз», бороздящий просторы ... 10 10 4
Торрент: Зарегистрирован [2017-12-12 12:51] · скачан: 311 раз
Статус: √ проверено
Размер: 5.19 GB
Как cкачать? Как скачать Хозяин морей: На краю Земли через торрент | UTorrent

% Раздел Тема Автор DL S | L
Фильмы [HD 720p, 1080p] (Хороший звук DUB, MVO) [ 5.86 GB ] Хозяин морей: На краю Земли / Master and Commander: The Far Side of the World [2003 военный история BDRip 1080p HEVC ()] Мичман37 Скачать
1 | 0
Фильмы [HD 720p, 1080p] (Хороший звук DUB, MVO) [ 7.76 GB ] Хозяин морей: На краю Земли / Master and Commander: The Far Side of the World [2003 BDRip 720p] D P A potroks Скачать
1 | 0
Фильмы 2001-2005 [ 2.59 GB ] Хозяин морей: На краю Земли / Master and Commander: The Far Side of the World [2003 военный HDRip ] Dean24 Скачать
1 | 0
Фильмы [HD 720p, 1080p] (Хороший звук DUB, MVO) [ 12.02 GB ] Хозяин морей: На краю Земли / Master and Commander: The Far Side of the World [ BDRip ] Flint3 Скачать
1 | 0
Фильмы 2001-2005 [ 1.46 GB ] Хозяин морей: На краю Земли / Master and Commander: The Far Side of the World [2003 Военный HDRip] DUB L_E_X Скачать
1 | 0


Последний раз редактировалось: Amantaigo (2017-12-12 15:31), всего редактировалось 2 раз(а)

28-11-2019 20:33  

Отключить всю рекламу на сайте

12-12-2017 19:02 Хозяин морей: На краю Земли Скачать торрент  

эх шедевр!pb.wtf



12-12-2017 20:50 Хозяин морей: На краю Земли Скачать торрент  

Классика ! спасибо !pb.wtf



13-12-2017 14:31 Хозяин морей: На краю Земли Скачать торрент  

super_finik писал(а):

Классика ! спасибо !

не за чтоpb.wtf



    Дорогой пользователь! Огромная просьба, поблагодарите релизера, оцените раздачу и оставьте свои комментарий, если Вы скачали Хозяин морей: На краю Земли через торрент бесплатно! Внесите свою лепту в развитие PiratBit!
    Комментировать посты могут только пользователи прошедшие не сложную регистрацию
    Показать сообщения:    

    Хозяин морей: На краю Земли через торрент
    Скачать бесплатно Хозяин морей: На краю Земли
    Хозяин морей: На краю Земли скачать торрент
    Хозяин морей: На краю Земли смотреть онлайн
    Cкачать фильм Хозяин морей: На краю Земли бесплатно
    Хозяин морей: На краю Земли скачать торрент в хорошем качестве
    Хозяин морей: На краю Земли смотреть онлайн бесплатно в хорошем качестве


    Вы не можете начинать темы
    Вы не можете отвечать на сообщения
    Вы не можете редактировать свои сообщения
    Вы не можете удалять свои сообщения
    Вы не можете голосовать в опросах
    Вы не можете прикреплять файлы к сообщениям
    Вы можете скачивать файлы