Ссылка на приватное зеркало нашего сайта всего за 1$. Внимание количество ограничено!!!

2 сезон

iTunes

1 сезон

1

2 сезон

2 сезон

iTunes

1 сезон

RePack

30

Ultimate

ВАЖНО

ИГРА 18+

pack

RePack

MK11
pack

Забери бонус

RePack

jed

!!Акция!!

Alien_Rage

RePack

fifa19

RePack

Assassins Creed: Odyssey

RePack

NEED FOR SPEED™ PAYBACK

4 сезон

9 сезон

Бесстыжие 9 сезон

Все сериалы

все сериалы на PB.wtf

RePack

FAR CRY 5
  

На гребне волны / Point Break (Эриксон Кор) [2015, боевик, триллер, криминал, WEB-DL 1080p] DUB + AVO [Лицензия] [Open Matte] pb.wtf

На гребне волны через торрент pb.wtf

Размер: 10.6 GB | Добавлен: 2 года 11 мес. назад | Торрент скачан:172 раза
Скачать  

13-12-2017 06:33 На гребне волны Скачать торрент  

На гребне волны / Point Break«The only law that matters is gravity»
Год выпуска: 2015
Страна: Китай, Германия, США
Жанр: боевик, триллер, криминал, спорт
Продолжительность: 02:09:07
Перевод: Профессиональный (дублированный) Blu-ray EUR + Авторский (одноголосый, закадровый) Ю.Живов
Субтитры: Русские, Английские
Режиссер: Эриксон Кор
В ролях:

Люк Брейси (Utah), Эдгар Рамирес (Bodhi), Рэй Уинстон (Pappas), Тереза Палмер (Samsara), Матиас Варела (Grommet), Клеменс Шик (Roach), Тобиас Зантельман (Chowder), Макс Тириот (Jeff), Делрой Линдо (Instructor Hall), Николай Кински (Pascal Al Fariq), Глайнис Барбер (FBI - Head of Investigations), Стив Туссэн (FBI Dept. Director #1)
Описание:
Джонни - молодой агент ФБР, специализирующийся на работе под прикрытием. Он не раз выходил из самых сложных ситуаций, всегда доделывая свою работу до конца. Его очередным заданием становится проникновение в банду воров. Однако эти люди не обычные грабители: их главным отличием от остальных является увлечение экстремальными видами спорта. Свои умения они используют при каждом новом ограблении, и стать частью их команды очень непросто. Чтобы войти в банду и остановить преступников, Джонни придется доказать, что он такой же как они, а для этого ему не раз предстоит рискнуть собственной жизнью...
Рейтинг:
rating
MPAA: PG-13 - Детям до 13 лет просмотр не желателен
Качество: WEB-DL 1080p | Open Matte
Формат: MKV
Видео: 1920x1080 at 23.976 fps, MPEG-4 AVC, ~9396 kbps avg
Aудио#1: Russian: 48 kHz, AC3, 3/2 (L,C,R,l,r) + LFE ch, ~640 kbps avg |Дубляж, Blu-ray EUR|
Aудио#2: Russian: 48 kHz, DTS, 3/2 (L,C,R,l,r) + LFE ch, ~1509 kbps avg |Авторский, Ю.Живов|
Aудио#3: English: 48 kHz, DTS, 3/2 (L,C,R,l,r) + LFE ch, ~1509 kbps avg
Навигация по главам: есть
Общее
Уникальный идентификатор : 252538199777535710804921445412058516211 (0xBDFD168E11FCDDD68691B60CE6794AF3)
Полное имя : Point Break (2015) WEB-DL 1080p [Open Matte] -BLUEBIRD.mkv
Формат : Matroska
Версия формата : Version 4 / Version 2
Размер файла : 10,6 Гбайт
Продолжительность : 1 ч. 53 м.
Режим общего битрейта : Переменный
Общий поток : 13,3 Мбит/сек
Дата кодирования : UTC 2017-11-02 08:24:35
Программа кодирования : mkvmerge v17.0.0 ('Be Ur Friend') 64-bit
Библиотека кодирования : libebml v1.3.5 + libmatroska v1.4.8

Видео
Идентификатор : 1
Формат : AVC
Формат/Информация : Advanced Video Codec
Профиль формата : High@L4.0
Параметр CABAC формата : Да
Параметр ReFrames формата : 4 кадра
Идентификатор кодека : V_MPEG4/ISO/AVC
Продолжительность : 1 ч. 53 м.
Вид битрейта : Переменный
Битрейт : 9396 Кбит/сек
Максимальный битрейт : 15,0 Мбит/сек
Ширина : 1920 пикселей
Высота : 1080 пикселей
Соотношение сторон : 16:9
Режим частоты кадров : Постоянный
Частота кадров : 23,976 кадра/сек
Цветовое пространство : YUV
Субдискретизация насыщенности : 4:2:0
Битовая глубина : 8 бит
Тип развёртки : Прогрессивная
Бит/(Пиксели*Кадры) : 0.189
Размер потока : 7,48 Гбайт (71%)
Default : Да
Forced : Нет
Основные цвета : BT.709
Характеристики трансфера : BT.709
Коэффициенты матрицы : BT.709

Аудио #1
Идентификатор : 2
Формат : AC-3
Формат/Информация : Audio Coding 3
Расширение режима : CM (complete main)
Параметр Endianness формата : Big
Идентификатор кодека : A_AC3
Продолжительность : 1 ч. 53 м.
Вид битрейта : Постоянный
Битрейт : 640 Кбит/сек
Каналы : 6 каналов
Расположение каналов : Front: L C R, Side: L R, LFE
Частота : 48,0 КГц
Битовая глубина : 16 бит
Метод сжатия : С потерями
Размер потока : 522 Мбайт (5%)
Заголовок : Дубляж
Язык : Russian
Default : Да
Forced : Нет

Аудио #2
Идентификатор : 3
Формат : DTS
Формат/Информация : Digital Theater Systems
Режим : 16
Параметр Endianness формата : Big
Идентификатор кодека : A_DTS
Продолжительность : 1 ч. 53 м.
Вид битрейта : Постоянный
Битрейт : 1510 Кбит/сек
Каналы : 6 каналов
Расположение каналов : Front: L C R, Side: L R, LFE
Частота : 48,0 КГц
Битовая глубина : 24 бит
Метод сжатия : С потерями
Размер потока : 1,20 Гбайт (11%)
Заголовок : Ю.Живов
Язык : Russian
Default : Нет
Forced : Нет

Аудио #3
Идентификатор : 4
Формат : DTS
Формат/Информация : Digital Theater Systems
Режим : 16
Параметр Endianness формата : Big
Идентификатор кодека : A_DTS
Продолжительность : 1 ч. 53 м.
Вид битрейта : Постоянный
Битрейт : 1510 Кбит/сек
Каналы : 6 каналов
Расположение каналов : Front: L C R, Side: L R, LFE
Частота : 48,0 КГц
Битовая глубина : 24 бит
Метод сжатия : С потерями
Размер потока : 1,20 Гбайт (11%)
Язык : English
Default : Нет
Forced : Нет

Текст #1
Идентификатор : 5
Формат : UTF-8
Идентификатор кодека : S_TEXT/UTF8
Идентификатор кодека/Информация : UTF-8 Plain Text
Язык : Russian
Default : Нет
Forced : Нет

Текст #2
Идентификатор : 6
Формат : UTF-8
Идентификатор кодека : S_TEXT/UTF8
Идентификатор кодека/Информация : UTF-8 Plain Text
Язык : Russian
Default : Нет
Forced : Нет

Текст #3
Идентификатор : 7
Формат : UTF-8
Идентификатор кодека : S_TEXT/UTF8
Идентификатор кодека/Информация : UTF-8 Plain Text
Язык : English
Default : Нет
Forced : Нет

Меню
00:00:00.000 : en:Studio Logos
00:00:51.000 : en:Utah and Jeff do some extreme dirt birking
00:04:30.000 : en:Title Sequence
00:04:33.000 : en:Instructor Hall has doubts about Utah
00:06:22.000 : en:The FBI tracks a gang of extreme sports thieves
00:09:52.000 : en:Utah shares a theory with Hall
00:13:00.000 : en:Utah presents his theory to the FBI directors
00:15:22.000 : en:Utah intercepts some extreme surfers
00:21:13.000 : en:Utah wakes up on Al Fariq's boat
00:27:27.000 : en:Bodhi asks Utah what he's looking for
00:28:53.000 : en:Utah follows the group to Paris
00:36:53.000 : en:Grommet doesn't trust Utah
00:37:23.000 : en:Bodhi and his gang hike up a mountain
00:39:05.000 : en:Six seconds to fly or die
00:42:53.000 : en:The group jumps off the mountain
00:46:49.000 : en:Utah becomes an accepted member of the team
00:49:00.000 : en:Utah leads the group down a mountain
00:55:03.000 : en:The group mourns the passing of a friend
00:56:18.000 : en:Al Fariq welcomes Utah into his clique
00:58:49.000 : en:Samsara talks about giving back
01:03:32.000 : en:Pappas calls out Utah on his actions
01:04:56.000 : en:Time to give back
01:12:40.000 : en:Hall reprimands Utah
01:16:09.000 : en:The FBI goes after the Bodhi and his gang
01:20:46.000 : en:Utah deduces Bodhi's next location
01:25:08.000 : en:Utah races Bodhi up the mountain
01:33:02.000 : en:Bodhi completes the 8
01:37:57.000 : en:Utah returns home
01:39:10.000 : en:End Credits
***Сохранены и подписаны оригинальные главы.
***Исходник видео - WEB-DL Amazon.
pb.wtf



Скачать На гребне волны через торрент http://i1.imageban.ru/out/2017/12/13/9d152809cf3d60b5bf4d0de6897557bc.png Скачать фильм На гребне волны через торрент бесплантно в хорошем качестве Описание: Джонни - молодой агент ФБР, специализирующийся на работе под прикрытием. Он не раз выходил из самых сложных ситуаций, всегда ... 10 10 8
Info! Золотая раздача, скачанное не засчитывается.
Торрент: Зарегистрирован [2017-12-13 06:33] · скачан: 172 раз
Статус: √ проверено
Размер: 10.6 GB
Как cкачать? Как скачать На гребне волны через торрент | qTorrent

% Раздел Тема Автор DL S | L
Фильмы (DVD фильмы) [ 5.87 GB ] На гребне волны / Point Break [2015 DVD9] R5 voovaz Скачать
1 | 0
Ultra HD (UHD: 2K, 4K, 8K) — видео сверхвысокой чёткости [ 56.24 GB ] На гребне волны / Point Break [2015 UHD BDRemux 2160p] DUB [] +AVO [Ю.Живов] bober100 Скачать
1 | 0
Фильмы 2015 [DVDrip, WEB-DLRip, HDrip] [ 749 MB ] На гребне волны / Point Break [2015 Германия Китай HDRip by _Один_777] Dub () Один 777 Скачать
1 | 0
Фильмы [HD 720p, 1080p] (Хороший звук DUB, MVO) [ 7.26 GB ] На гребне волны / Point Break [2015 BDRip 720p] DUB potroks Скачать
1 | 0
Фильмы [HD 720p, 1080p] (Хороший звук DUB, MVO) [ 13.1 GB ] На гребне волны / Point Break [2015 BDRip 1080p] DUB $-DRON-$ Скачать
1 | 0
Фильмы 2015 [DVDrip, WEB-DLRip, HDrip] [ 1.46 GB ] На гребне волны / Point Break [2015 BDRip] DUB Twi7ter Скачать
1 | 0
3D Фильмы [ 18.95 GB ] На гребне волны в 3Д / Point Break 3D [2015 Экстрим BDrip 1080p DUB] OverUnder / Вертикальная стереопара serega768 Скачать
1 | 0

28-11-2019 20:33  

Отключить всю рекламу на сайте

13-12-2017 11:37 На гребне волны Скачать торрент  

мне понравился фильм. посмотрел с удовольствием. спасибо.pb.wtf



    Дорогой пользователь! Огромная просьба, поблагодарите релизера, оцените раздачу и оставьте свои комментарий, если Вы скачали На гребне волны через торрент бесплатно! Внесите свою лепту в развитие PiratBit!
    Комментировать посты могут только пользователи прошедшие не сложную регистрацию
    Показать сообщения:    

    На гребне волны через торрент
    Скачать бесплатно На гребне волны
    На гребне волны скачать торрент
    На гребне волны смотреть онлайн
    Cкачать фильм На гребне волны бесплатно
    На гребне волны скачать торрент в хорошем качестве
    На гребне волны смотреть онлайн бесплатно в хорошем качестве


    Вы не можете начинать темы
    Вы не можете отвечать на сообщения
    Вы не можете редактировать свои сообщения
    Вы не можете удалять свои сообщения
    Вы не можете голосовать в опросах
    Вы не можете прикреплять файлы к сообщениям
    Вы можете скачивать файлы