Ссылка на приватное зеркало нашего сайта всего за 1$. Внимание количество ограничено!!!

2 сезон

iTunes

1 сезон

1

iTunes

iTunes

iTunes

1 сезон

RePack

30

ИГРА 18+

pack

ВАЖНО

!!Акция!!

Alien_RageХит недели

RePack

MK11
pack

Забери бонус

RePack

jed

!!Акция!!

Alien_Rage

RePack

fifa19

RePack

Assassins Creed: Odyssey

RePack

NEED FOR SPEED™ PAYBACK

4 сезон

9 сезон

Бесстыжие 9 сезон

Все сериалы

все сериалы на PB.wtf

RePack

FAR CRY 5
  

Пёс-призрак: Путь самурая / Ghost Dog: The Way of the Samurai (Джим Джармуш) [1999, боевик, триллер, драма, криминал, BDRip 1080p by msltel] MVO, 4 x AVO pb.wtf

Пёс-призрак: Путь самурая через торрент pb.wtf

Размер: 18.36 GB | Добавлен: 2 года 10 мес. назад | Торрент скачан:32 раза
Скачать  

13-12-2017 06:37 Пёс-призрак: Путь самурая Скачать торрент  

Название: Пёс-призрак: Путь самурая
Оригинальное название: Ghost Dog: The Way of the Samurai
Год выпуска: 1999
Страна: Франция, Германия, США, Япония
Жанр: боевик, триллер, драма, криминал
Продолжительность: 01:51:13
Перевод: профессиональный многоголосый, авторский

Режиссер: Джим Джармуш
В ролях: Форест Уитакер, Джон Торми, Клифф Гормен, Деннис Лю, Фрэнк Минуччи, Ричард Портноу, Триша Весси, Генри Сильва, Джин Руффини, Фрэнк Адонис, Виктор Арго, Дэймон Уитакер, Кенни Гюэ, Винс Виверито, Гано Гриллз, Джэми Гектор, Камилла Уинбуш

О фильме: Пёс-призрак — загадочный воин, подчинивший свою жизнь древним законам чести самураев. Он безропотно служит своему хозяину, когда-то спасшему ему жизнь. Презирая опасность и не думая о собственной судьбе, таинственный убийца-одиночка убирает с дороги врагов своего господина. Но его хозяин преследует далеко не благородные цели. Мелкий мафиози ради спасения своей жизни отправляет Пса-призрака в неравную битву с целым преступным синдикатом...



Качество: BDRip 1080p
Формат: MKV
Видео: MPEG-4 AVC, 15.6 Mбит/с, 1920x1080
Аудио 1: русский, AC3, 448 kbps, 6 ch [профессиональный многоголосый, R5]
Аудио 2: русский, DTS, 1509 kbps, 6 ch [авторский, Юрий Живов]
Аудио 3: русский, DTS, 1509 kbps, 6 ch [авторский, Дмитрий Пучков]
Аудио 4: русский, DTS, 1509 kbps, 6 ch [авторский, Юрий Сербин]
Аудио 5: русский, DTS, 1509 kbps, 6 ch [авторский, Егор Строев]
Аудио 6: английский, DTS, 1509 kbps, 6 ch, 48 kHz [оригинал]
Субтитры: русские
Неименованные главы/чаптеры.
Общее
Уникальный идентификатор : 211403876688620008165190746445319453189 (0x9F0AE7D882516D19B3CE568DE7E33A05)
Полное имя : D:\Video\Пёс-призрак.1999.BDRip.1080p by msltel.mkv
Формат : Matroska
Версия формата : Version 4 / Version 2
Размер файла : 18,4 Гбайт
Продолжительность : 1 ч. 51 м.
Общий поток : 23,6 Мбит/сек
Название фильма : Rip by msltel
Дата кодирования : UTC 2017-12-12 17:48:37
Программа кодирования : mkvmerge v8.2.0 ('World of Adventure') 64bit
Библиотека кодирования : libebml v1.3.1 + libmatroska v1.4.2

Видео
Идентификатор : 1
Формат : AVC
Формат/Информация : Advanced Video Codec
Профиль формата : High@L4.1
Настройки формата : CABAC / 4 Ref Frames
Параметр CABAC формата : Да
Параметр RefFrames формата : 4 кадра
Идентификатор кодека : V_MPEG4/ISO/AVC
Продолжительность : 1 ч. 51 м.
Битрейт : 15,6 Мбит/сек
Ширина : 1920 пикселей
Высота : 1080 пикселей
Соотношение сторон : 16:9
Режим частоты кадров : Постоянный
Частота кадров : 25,000 кадров/сек
Цветовое пространство : YUV
Субдискретизация насыщенности : 4:2:0
Битовая глубина : 8 бит
Тип развёртки : Прогрессивная
Бит/(Пиксели*Кадры) : 0.302
Размер потока : 12,1 Гбайт (66%)
Библиотека кодирования : x264 core 146 r2538 121396c
Настройки программы : cabac=1 / ref=4 / deblock=1:-3:-2 / analyse=0x3:0x113 / me=umh / subme=11 / psy=1 / psy_rd=1.00:0.15 / mixed_ref=1 / me_range=32 / chroma_me=1 / trellis=2 / 8x8dct=1 / cqm=0 / deadzone=21,11 / fast_pskip=0 / chroma_qp_offset=-3 / threads=6 / lookahead_threads=1 / sliced_threads=0 / nr=0 / decimate=1 / interlaced=0 / bluray_compat=0 / constrained_intra=0 / bframes=6 / b_pyramid=2 / b_adapt=2 / b_bias=0 / direct=1 / weightb=1 / open_gop=0 / weightp=2 / keyint=240 / keyint_min=24 / scenecut=40 / intra_refresh=0 / rc_lookahead=40 / rc=crf / mbtree=0 / crf=17.6 / qcomp=0.60 / qpmin=0 / qpmax=69 / qpstep=4 / vbv_maxrate=62500 / vbv_bufsize=78125 / crf_max=0.0 / nal_hrd=none / filler=0 / ip_ratio=1.40 / pb_ratio=1.30 / aq=1:1.00
Язык : English
Default : Да
Forced : Нет

Аудио #1
Идентификатор : 2
Формат : AC-3
Формат/Информация : Audio Coding 3
Идентификатор кодека : A_AC3
Продолжительность : 1 ч. 51 м.
Вид битрейта : Постоянный
Битрейт : 448 Кбит/сек
Каналы : 6 каналов
Расположение каналов : Front: L C R, Side: L R, LFE
Частота : 48,0 КГц
Частота кадров : 31,250 кадров/сек (1536 SPF)
Битовая глубина : 16 бит
Метод сжатия : С потерями
Размер потока : 356 Мбайт (2%)
Заголовок : MVO.R5
Язык : Russian
ServiceKind/String : Complete Main
Default : Да
Forced : Нет

Аудио #2
Идентификатор : 3
Формат : DTS
Формат/Информация : Digital Theater Systems
Идентификатор кодека : A_DTS
Продолжительность : 1 ч. 51 м.
Вид битрейта : Постоянный
Битрейт : 1509 Кбит/сек
Каналы : 6 каналов
Расположение каналов : Front: L C R, Side: L R, LFE
Частота : 48,0 КГц
Частота кадров : 93,750 кадра/сек (512 SPF)
Битовая глубина : 16 бит
Метод сжатия : С потерями
Размер потока : 1,17 Гбайт (6%)
Заголовок : Юрий Живов
Язык : Russian
Default : Нет
Forced : Нет

Аудио #3
Идентификатор : 4
Формат : DTS
Формат/Информация : Digital Theater Systems
Идентификатор кодека : A_DTS
Продолжительность : 1 ч. 51 м.
Вид битрейта : Постоянный
Битрейт : 1509 Кбит/сек
Каналы : 6 каналов
Расположение каналов : Front: L C R, Side: L R, LFE
Частота : 48,0 КГц
Частота кадров : 93,750 кадра/сек (512 SPF)
Битовая глубина : 16 бит
Метод сжатия : С потерями
Размер потока : 1,17 Гбайт (6%)
Заголовок : Дмитрий Пучков
Язык : Russian
Default : Нет
Forced : Нет

Аудио #4
Идентификатор : 5
Формат : DTS
Формат/Информация : Digital Theater Systems
Идентификатор кодека : A_DTS
Продолжительность : 1 ч. 51 м.
Вид битрейта : Постоянный
Битрейт : 1509 Кбит/сек
Каналы : 6 каналов
Расположение каналов : Front: L C R, Side: L R, LFE
Частота : 48,0 КГц
Частота кадров : 93,750 кадра/сек (512 SPF)
Битовая глубина : 16 бит
Метод сжатия : С потерями
Размер потока : 1,17 Гбайт (6%)
Заголовок : Юрий Сербин
Язык : Russian
Default : Нет
Forced : Нет

Аудио #5
Идентификатор : 6
Формат : DTS
Формат/Информация : Digital Theater Systems
Идентификатор кодека : A_DTS
Продолжительность : 1 ч. 51 м.
Вид битрейта : Постоянный
Битрейт : 1509 Кбит/сек
Каналы : 6 каналов
Расположение каналов : Front: L C R, Side: L R, LFE
Частота : 48,0 КГц
Частота кадров : 93,750 кадра/сек (512 SPF)
Битовая глубина : 16 бит
Метод сжатия : С потерями
Размер потока : 1,17 Гбайт (6%)
Заголовок : Егор Строев
Язык : Russian
Default : Нет
Forced : Нет

Аудио #6
Идентификатор : 7
Формат : DTS
Формат/Информация : Digital Theater Systems
Идентификатор кодека : A_DTS
Продолжительность : 1 ч. 51 м.
Вид битрейта : Постоянный
Битрейт : 1509 Кбит/сек
Каналы : 6 каналов
Расположение каналов : Front: L C R, Side: L R, LFE
Частота : 48,0 КГц
Частота кадров : 93,750 кадра/сек (512 SPF)
Битовая глубина : 16 бит
Метод сжатия : С потерями
Размер потока : 1,17 Гбайт (6%)
Заголовок : original
Язык : English
Default : Нет
Forced : Нет

Текст
Идентификатор : 8
Формат : UTF-8
Идентификатор кодека : S_TEXT/UTF8
Идентификатор кодека/Информация : UTF-8 Plain Text
Продолжительность : 1 ч. 46 м.
Битрейт : 62 бит/сек
ElementCount : 732
Размер потока : 48,5 Кбайт (0%)
Заголовок : русские
Язык : Russian
Default : Нет
Forced : Нет

Меню
00:00:00.000 : :Chapter 01
00:09:58.480 : :Chapter 02
00:16:03.480 : :Chapter 03
00:24:11.358 : :Chapter 04
00:33:34.719 : :Chapter 05
00:45:17.199 : :Chapter 06
00:53:04.800 : :Chapter 07
01:04:34.960 : :Chapter 08
01:12:53.037 : :Chapter 09
01:19:30.000 : :Chapter 10
01:27:11.840 : :Chapter 11
01:40:08.279 : :Chapter 12
01:51:12.600 : :Chapter 13
pb.wtf



Скачать Пёс-призрак: Путь самурая через торрент http://s010.radikal.ru/i313/1712/21/e5c537b29684.jpg Скачать фильм Пёс-призрак: Путь самурая через торрент бесплантно в хорошем качестве О фильме: Пёс-призрак — загадочный воин, подчинивший свою жизнь древним законам чести самураев. Он безропотно служит своему хозяину, ... 9 10 3
Info! Золотая раздача, скачанное не засчитывается.
Торрент: Зарегистрирован [2017-12-13 06:37] · скачан: 32 раз
Статус: √ проверено
Размер: 18.36 GB
Как cкачать? Как скачать Пёс-призрак: Путь самурая через торрент | qTorrent

% Раздел Тема Автор DL S | L
Фильмы [HD 720p, 1080p] (Хороший звук DUB, MVO) [ 6.5 GB ] Пёс-призрак: Путь самурая / Ghost Dog: The Way of the Samurai [1999 BDRip 720p by msltel] MVO 4 x AVO msltel Скачать
1 | 0

28-11-2019 20:33  

Отключить всю рекламу на сайте

15-12-2017 09:51 Пёс-призрак: Путь самурая Скачать торрент  

Nigga - самурай... отвратно-жирный. Именно такие самураи.pb.wtf



    Дорогой пользователь! Огромная просьба, поблагодарите релизера, оцените раздачу и оставьте свои комментарий, если Вы скачали Пёс-призрак: Путь самурая через торрент бесплатно! Внесите свою лепту в развитие PiratBit!
    Комментировать посты могут только пользователи прошедшие не сложную регистрацию
    Показать сообщения:    

    Пёс-призрак: Путь самурая через торрент
    Скачать бесплатно Пёс-призрак: Путь самурая
    Пёс-призрак: Путь самурая скачать торрент
    Пёс-призрак: Путь самурая смотреть онлайн
    Cкачать фильм Пёс-призрак: Путь самурая бесплатно
    Пёс-призрак: Путь самурая скачать торрент в хорошем качестве
    Пёс-призрак: Путь самурая смотреть онлайн бесплатно в хорошем качестве


    Вы не можете начинать темы
    Вы не можете отвечать на сообщения
    Вы не можете редактировать свои сообщения
    Вы не можете удалять свои сообщения
    Вы не можете голосовать в опросах
    Вы не можете прикреплять файлы к сообщениям
    Вы можете скачивать файлы