Всегда рабочее зеркало без VPN и Proxy просто перед .vidak.icu напиши любое слово или цифру, Пример http://a35j.vidak.icu

MVO

2 сезон

2 сезон

1

1 сезон

iTunes

2 сезон

13

1 сезон

Deluxe

pack

Рекомендуем

Пиратка

30

ВАЖНО

RePack

MK11

RePack

jed

RePack

fifa19

RePack

RDR2

RePack

NEED FOR SPEED™ PAYBACK

Кинопоиск HD

6 сезон

 Острые козырьки 6 сезон

Все сериалы

все сериалы на PB.wtf

RePack

FAR CRY 5

Anonymous, нам критически не хватает 5601 руб. на оплату серверов и переферии за Апрель, помоги нам пожалуйста, вся надежда только на тебя. В благодарность мы отключим тебе всю рекламу на сайте!

×
  
Magnet ссылка

Лорен / Laurin (Роберт Сигл) [1989 г, ужасы, триллер, драма, детектив, HDRip] AVO (Кузнецов) pb.wtf

Лорен через торрент pb.wtf

Размер: 1.09 GB | Добавлен: 4 года 5 мес. назад | Торрент скачан:10 раз
Смотреть онлайн Лорен | Скачать    Ребята, помогите собрать деньги на оплату серверов!!!

13-12-2017 08:27 Лорен Скачать торрент  

Лорен / Laurin
Год выпуска: 1989
Страна: Германия (ФРГ), Венгрия
Жанр: ужасы, триллер, драма, детектив
Продолжительность: 01:23:26
Перевод: Авторский (Кузнецов)

Режиссер: Роберт Сигл

rating

В ролях: Дора Синетар, Бриджитт Карнер, Карой Эперьеш, Хеди Темешши, Барнабаш Тот, Каталин Шир, Янош Держи, Золтан Гера, Ильдико Хамори

Описание: Конец 19 века. В лесном замке недалеко от небольшого портового городка живёт 9-летняя Лорен со своей матерью Флорой, отцом и бабушкой Хельгой в замке в лесу. Отец Лорен — моряк, который должен на несколько месяцев покидать дом. Однажды Флора, провожая своего мужа до гавани, погибает при странных обстоятельствах. Это напоминает несчастный случай, но Лорен чувствует, что это не так и что-то зловещее скрыто в их доме.

Качество: HDRip
Формат: AVI
Видео: XviD, 1669 Кбит/с, 720x384, 24 кадр/с
Аудио: AC3, 2 ch, 192 Кбит/с
Релиз от: Koenig
скриншот   скриншот   скриншот   скриншот   скриншот   скриншот  

Общее
Полное имя : Laurin.1989.HDRip.avi
Формат : AVI
Формат/Информация : Audio Video Interleave
Размер файла : 1,09 Гбайт
Продолжительность : 1 ч. 23 м.
Общий поток : 1870 Кбит/сек
Программа кодирования : VirtualDubMod 1.5.10.2 (build 2540/release)
Библиотека кодирования : VirtualDubMod build 2540/release

Видео
Идентификатор : 0
Формат : MPEG-4 Visual
Профиль формата : Advanced Simple@L5
Параметр BVOP формата : 1
Параметр QPel формата : Нет
Параметр GMC формата : Без точки перехода
Параметр матрицы формата : Выборочная
Идентификатор кодека : XVID
Идентификатор кодека/Подсказка : XviD
Продолжительность : 1 ч. 23 м.
Битрейт : 1669 Кбит/сек
Ширина : 720 пикселей
Высота : 384 пикселя
Соотношение сторон : 1,85:1
Частота кадров : 24,000 кадра/сек
Цветовое пространство : YUV
Субдискретизация насыщенности : 4:2:0
Битовая глубина : 8 бит
Тип развёртки : Прогрессивная
Метод сжатия : С потерями
Бит/(Пиксели*Кадры) : 0.252
Размер потока : 996 Мбайт (89%)
Библиотека кодирования : XviD 65

Аудио
Идентификатор : 1
Формат : AC-3
Формат/Информация : Audio Coding 3
Параметр Endianness формата : Big
Идентификатор кодека : 2000
Продолжительность : 1 ч. 23 м.
Вид битрейта : Постоянный
Битрейт : 192 Кбит/сек
Каналы : 2 канала
Расположение каналов : Front: L R
Частота : 48,0 КГц
Частота кадров : 31,250 кадров/сек (1536 spf)
Битовая глубина : 16 бит
Метод сжатия : С потерями
Размер потока : 115 Мбайт (10%)
Выравнивание : Разделение по промежуткам
Продолжительность промежутка : 42 мс. (1,00 видеокадр)
Время предзагрузки промежутка : 500 мс.
ServiceKind/String : Complete Main

pb.wtf



Скачать Лорен через торрент https://pic1.kartinco.top/images/11/9pnuk.jpg Скачать, смотреть онлайн Лорен бесплантно в хорошем качестве Описание: Конец 19 века. В лесном замке недалеко от небольшого портового городка живёт 9-летняя Лорен со своей матерью Флорой, отцом и ... 10 10 2
Торрент: Зарегистрирован [2017-12-13 08:27] · скачан: 10 раз
Статус: √ проверено
Размер: 1.09 GB
Как cкачать? Как скачать Лорен через торрент | UTorrent

% Раздел Тема Автор DL S | L
Фильмы с авторской озвучкой [ 12.15 GB ] Лорен / Laurin [1989 BDRip 1080p by msltel] AVO msltel Скачать
1 | 0
Фильмы с авторской озвучкой [ 4.75 GB ] Лорен / Laurin [1989 BDRip 720p by msltel] AVO msltel Скачать
1 | 0
Фильмы с авторской озвучкой [ 2.37 GB ] Лорен / Laurin [1989 BDRip-AVC by msltel] AVO msltel Скачать
1 | 0
Документальные фильмы и телепередачи [ 4.51 GB ] Королева Версаля / The Queen of Versailles [2012 документальный BDRip 720p] MVO Ворон Скачать
1 | 0
Фильмы (DVD фильмы) [ 4.36 GB ] Ищу друга на конец света / Seeking a Friend for the End of the World [2012 DVD5] R5 voovaz Скачать
1 | 0
Документальные фильмы и телепередачи [ 1.45 GB ] Тупак: Воскрешение / Tupac: Resurrection [2003 документальный биография музыка DVDRip] rza_86 Скачать
1 | 0

28-11-2019 20:33  

Отключить всю рекламу на сайте

    Дорогой пользователь! Огромная просьба, поблагодарите релизера, оцените раздачу и оставьте свои комментарий, если Вы скачали Лорен через торрент бесплатно!
    Комментировать посты могут только пользователи прошедшие не сложную регистрацию
    Показать сообщения:    

    Лорен через торрент
    Скачать бесплатно Лорен
    Лорен скачать торрент
    Лорен смотреть онлайн
    Cкачать фильм Лорен бесплатно
    Лорен скачать торрент в хорошем качестве
    Лорен смотреть онлайн бесплатно в хорошем качестве


    Вы не можете начинать темы
    Вы не можете отвечать на сообщения
    Вы не можете редактировать свои сообщения
    Вы не можете удалять свои сообщения
    Вы не можете голосовать в опросах
    Вы не можете прикреплять файлы к сообщениям
    Вы можете скачивать файлы