новый адрес
Мега распродажа FORZA HORIZON 4 ULTIMATE+ВСЕ DLC+ОНЛАЙН всего за 499р. 349 руб. (супер цена). Внимание количество ограничено!!!

iTunes

1+1

iTunes

мы

iTunes

1

iTunes

Чернобыль

iTunes

Ральф против интернета

Лицензия

ПШазам

Лицензия

Игра престолов

Лицензия

30
pack

ВАЖНО

!!Акция!!

Alien_RageХит недели

RePack

Resident Evil 21

ИГРА 18+

pack

RePack

Metro:Exodus

!!Акция!!

Alien_Rage

RePack

fifa19

RePack

Assassins Creed: Odyssey

RePack

NEED FOR SPEED™ PAYBACK

3 сезон

9 сезон

Бесстыжие 9 сезон

Все сериалы

все сериалы на PB.wtf

RePack

FAR CRY 5
Ребята, катастрофически не хватает 1900р. для оплаты серверов за Октябрь (всвязи с блокировками трафик упал в 3 раза), 1-2р., выручайте.
  

Григорий Сковорода (Иван Кавалеридзе) [1959, СССР, биография, SATRip от AVP Studio] pb.wtf

Григорий Сковорода через торрент pb.wtf

Размер: 1.09 GB | Добавлен: 1 год 11 мес. назад | Торрент скачан:12 раз
Скачать  

13-12-2017 10:21 Григорий Сковорода Скачать торрент  

Григорий Сковорода
Страна: СССР
Производство: Киевская им. Довженко

Жанр: биография
Год выпуска: 1959
Продолжительность: 01:28:21

Перевод: Не требуется
Cубтитры: нет
Оригинальная аудиодорожка: русский

Режиссер: Иван Кавалеридзе

В ролях:
Александр Гай, Николай Козленко, А. Тюрин, Таисия Литвиненко, Юрий Сарычев, Николай Пишванов, Евгения Веховская, Иван Ужвий, Яков Козлов, Анатолий Моторный, Калерия Землеглядова, Анна Николаева, Алексей Савостьянов, Витольд Янпавлис, Всеволод Быковец, Юрий Лавров, Борис Карлаш-Вербицкий...
Об актёрах подробней

Описание:
О жизни и деятельности Григория Саввича Сковороды (1722 - 1794) - выдающегося украинского философа, поэта, гуманиста, демократа и просветителя XVIII века.
Роскошный дворец императрицы Елизаветы в Санкт-Петербурге. Молодой украинский поэт Сковорода обласкан самой царицей. Но он безразличен к почестям и славе, сердцем он со своим народом, с Украиной. Поэт покидает царский дворец и возвращается на родину.

Исходник: DVB
Качество видео: SATRip
Формат видео: AVI

Видео: 704х528 (4:3), 25 fps, XviD ~ 1565 kbps avg, 0.168 bit/pixel
Аудио: 48 kHz, Dolby Digital AC3 2.0, 192 kbps

Раздача от:
Общее
Полное имя : Grigoriy.Skovoroda.1959.SATRip_[New-team]_by_AVP_Studio.avi
Формат : AVI
Формат/Информация : Audio Video Interleave
Размер файла : 1,09 Гбайт
Продолжительность : 1 ч. 28 м.
Общий поток : 1767 Кбит/сек
Программа кодирования : VirtualDubMod 1.5.10.3 | www.virtualdub-fr.org || (build 2550/release)
Библиотека кодирования : VirtualDubMod build 2550/release

Видео
Идентификатор : 0
Формат : MPEG-4 Visual
Профиль формата : Advanced Simple@L5
Настройки формата : BVOP1 / Custom Matrix
Параметр BVOP формата : 1
Параметр QPel формата : Нет
Параметр GMC формата : Без точки перехода
Параметр матрицы формата : Выборочная
Идентификатор кодека : XVID
Идентификатор кодека/Подсказка : XviD
Продолжительность : 1 ч. 28 м.
Битрейт : 1565 Кбит/сек
Ширина : 704 пикселя
Высота : 528 пикселей
Соотношение сторон : 4:3
Частота кадров : 25,000 кадров/сек
Цветовое пространство : YUV
Субдискретизация насыщенности : 4:2:0
Битовая глубина : 8 бит
Тип развёртки : Прогрессивная
Метод сжатия : С потерями
Бит/(Пиксели*Кадры) : 0.168
Размер потока : 989 Мбайт (89%)
Библиотека кодирования : XviD 73

Аудио
Идентификатор : 1
Формат : AC-3
Формат/Информация : Audio Coding 3
Идентификатор кодека : 2000
Продолжительность : 1 ч. 28 м.
Вид битрейта : Постоянный
Битрейт : 192 Кбит/сек
Каналы : 2 канала
Расположение каналов : Front: L R
Частота : 48,0 КГц
Частота кадров : 31,250 кадров/сек (1536 SPF)
Битовая глубина : 16 бит
Метод сжатия : С потерями
Размер потока : 121 Мбайт (11%)
Выравнивание : Разделение по промежуткам
Продолжительность промежутка : 40 мс. (1,00 видеокадр)
Время предзагрузки промежутка : 500 мс
pb.wtf



Скачать Григорий Сковорода через торрент http://s010.radikal.ru/i311/1712/7e/5f25440baaab.png Скачать фильм Григорий Сковорода через торрент бесплантно в хорошем качестве Описание:О жизни и деятельности Григория Саввича Сковороды (1722 - 1794) - выдающегося украинского философа, поэта, гуманиста, демократа и ... 5 10 1
Info! Золотая раздача, скачанное не засчитывается.
Торрент: Зарегистрирован [2017-12-13 10:21] · скачан: 12 раз
Статус: √ проверено
Размер: 1.09 GB
Как cкачать? Как скачать Григорий Сковорода через торрент | qTorrent

% Раздел Тема Автор DL S | L
Кино СССР [ 1.09 GB ] Григорий Сковорода [1959 СССР биография SATRip-AVC от AVP Studio] AVP Studio Скачать
1 | 0
Кино СССР [ 776 MB ] Григорий Сковорода [1959 СССР биография SATRip от AVP Studio] AVP Studio Скачать
1 | 0


>> Регистрируемся здесь <<






Отзывы и комментарии о схеме читаем и пишем здесь: ---> Отзывы и комментарии о схеме

Новые благодарочки в телеграм довольных пользователей:
скриншот   скриншот   скриншот   скриншот   скриншот
    Дорогой пользователь! Огромная просьба, поблагодарите релизера, оцените раздачу и оставьте свои комментарий, если Вы скачали Григорий Сковорода через торрент бесплатно! Внесите свою лепту в развитие PiratBit!
    Комментировать посты могут только пользователи прошедшие не сложную регистрацию
    Показать сообщения:    

    Григорий Сковорода через торрент
    Скачать бесплатно Григорий Сковорода
    Григорий Сковорода скачать торрент
    Григорий Сковорода смотреть онлайн
    Cкачать фильм Григорий Сковорода бесплатно
    Григорий Сковорода скачать торрент в хорошем качестве
    Григорий Сковорода смотреть онлайн бесплатно в хорошем качестве


    Вы не можете начинать темы
    Вы не можете отвечать на сообщения
    Вы не можете редактировать свои сообщения
    Вы не можете удалять свои сообщения
    Вы не можете голосовать в опросах
    Вы не можете прикреплять файлы к сообщениям
    Вы можете скачивать файлы