Ссылка на приватное зеркало всего за 1$. Внимание количество ограничено!!!

OK

1+1

iTunes

мы

OK

1

WEB-DLRip

Джокер

Пифагор

Ведьмак / The Witcher сериал

Лицензия

ПШазам

ОК

Оно 2

iTunes

30
pack

Вам бонус

ВАЖНО

!!Акция!!

Alien_RageХит недели

RePack

Resident Evil 21

ИГРА 18+

pack

RePack

jed

RePack

fifa19

RePack

Assassins Creed: Odyssey

RePack

NEED FOR SPEED™ PAYBACK

4 сезон

9 сезон

Бесстыжие 9 сезон

Все сериалы

все сериалы на PB.wtf

RePack

FAR CRY 5
  

Однажды на Рождество / Once Upon a Time at Christmas (Пол Тантер) [2017, ужасы, WEB-DL 720p] MVO ["Синема УС"] pb.wtf

Однажды на Рождество через торрент pb.wtf

Размер: 3.01 GB | Добавлен: 2 года 1 мес. назад | Торрент скачан:48 раз
Скачать  

14-12-2017 08:02 Однажды на Рождество Скачать торрент  

Однажды на Рождество / Once Upon a Time at Christmas
Год выпуска: 2017
Страна: Великобритания
Жанр: ужасы
Продолжительность: 01:37:42
Перевод: Любительский (многоголосый) - ["Синема УС"]
Субтитры: отсутствуют

Режиссер: Пол Тантер

rating

В ролях:

Саймон Филлипс, Сайла де Годе, Джефф Элленбергер, Брук Флетчер, Кристина Вернуччи, Девон Мэри Доэрти, Лорел Брэди, Бэрри Кеннеди, Лаура Дарби, Сюзанна Маккэй

Описание:

За двенадцать дней до Рождества жители тихого заснеженного города Вудридж становятся жертвами жестоких убийств сумасшедших Санты и Миссис Клаус. Пока полиция пытается защитить людей, становится ясно, что жертв связывает одна молодая девушка, которая может стать последней жертвой в списке Санта Клауса. Резня продолжается, а трупов становится всё больше, и, похоже, никто не сможет остановить убийства, пока не наступит Рождество.

Качество: WEB-DL 720p
Формат: MKV
Видео кодек: H.264
Аудио кодек: AC3

Видео: 4031 Kb/s, 1280x718
Аудио#1: Русский, (AC3, 2 ch, 384 Кбит/с)

скриншот   скриншот   скриншот  

Общее
Уникальный идентификатор : 181825242472167395599787863065937263509 (0x88CA4495E5E235D8945C8C3E33B33B95)
Полное имя : C:\Users\Бобер\Desktop\Once.Upon.a.Time.at.Christmas.2017.P.WEB-DL.72Op_KOSHARA.mkv
Формат : Matroska
Версия формата : Version 2
Размер файла : 3,01 Гбайт
Продолжительность : 1 ч. 37 м.
Режим общего битрейта : Переменный
Общий поток : 4417 Кбит/сек
Дата кодирования : UTC 2017-12-13 16:52:01
Программа кодирования : mkvmerge v8.3.0 ('Over the Horizon') 64bit
Библиотека кодирования : libebml v1.3.1 + libmatroska v1.4.2

Видео
Идентификатор : 1
Формат : AVC
Формат/Информация : Advanced Video Codec
Профиль формата : High@L4.1
Параметр CABAC формата : Да
Параметр ReFrames формата : 9 кадров
Идентификатор кодека : V_MPEG4/ISO/AVC
Продолжительность : 1 ч. 37 м.
Вид битрейта : Переменный
Битрейт : 4031 Кбит/сек
Максимальный битрейт : 4500 Кбит/сек
Ширина : 1280 пикселей
Высота : 718 пикселей
Соотношение сторон : 16:9
Режим частоты кадров : Постоянный
Частота кадров : 23,976 (24000/1001) кадра/сек
Стандарт вещания : Component
Цветовое пространство : YUV
Субдискретизация насыщенности : 4:2:0
Битовая глубина : 8 бит
Тип развёртки : Прогрессивная
Бит/(Пиксели*Кадры) : 0.183
Размер потока : 2,75 Гбайт (91%)
Default : Да
Forced : Нет
Цветовой диапазон : Limited
Основные цвета : BT.709
Характеристики трансфера : BT.709
Коэффициенты матрицы : BT.709

Аудио
Идентификатор : 2
Формат : AC-3
Формат/Информация : Audio Coding 3
Расширение режима : CM (complete main)
Параметр Endianness формата : Big
Идентификатор кодека : A_AC3
Продолжительность : 1 ч. 37 м.
Вид битрейта : Постоянный
Битрейт : 384 Кбит/сек
Каналы : 2 канала
Расположение каналов : Front: L R
Частота : 48,0 КГц
Частота кадров : 31,250 кадров/сек (1536 spf)
Метод сжатия : С потерями
Размер потока : 268 Мбайт (9%)
Default : Да
Forced : Нет

pb.wtf



Скачать Однажды на Рождество через торрент http://s018.radikal.ru/i514/1712/4c/eada00bb10a4.jpg Скачать фильм Однажды на Рождество через торрент бесплантно в хорошем качестве Описание: За двенадцать дней до Рождества жители тихого заснеженного города Вудридж становятся жертвами жестоких убийств сумасшедших Санты ... 9.7 10 3
Торрент: Зарегистрирован [2017-12-14 08:02] · скачан: 48 раз
Статус: T временная
Размер: 3.01 GB
Как cкачать? Как скачать Однажды на Рождество через торрент | qTorrent

% Раздел Тема Автор DL S | L
T Фильмы (мультфильмы) cо спонсором показа (Новинки AVI/MKV) [ 1.37 GB ] Однажды на Рождество / Once Upon a Time at Christmas [2017 WEB-DLRip] MVO ["Синема УС"] bober100 Скачать
1 | 0

28-11-2019 20:33  

Отключить всю рекламу на сайте

    Дорогой пользователь! Огромная просьба, поблагодарите релизера, оцените раздачу и оставьте свои комментарий, если Вы скачали Однажды на Рождество через торрент бесплатно! Внесите свою лепту в развитие PiratBit!
    Комментировать посты могут только пользователи прошедшие не сложную регистрацию
    Показать сообщения:    

    Однажды на Рождество через торрент
    Скачать бесплатно Однажды на Рождество
    Однажды на Рождество скачать торрент
    Однажды на Рождество смотреть онлайн
    Cкачать фильм Однажды на Рождество бесплатно
    Однажды на Рождество скачать торрент в хорошем качестве
    Однажды на Рождество смотреть онлайн бесплатно в хорошем качестве


    Вы не можете начинать темы
    Вы не можете отвечать на сообщения
    Вы не можете редактировать свои сообщения
    Вы не можете удалять свои сообщения
    Вы не можете голосовать в опросах
    Вы не можете прикреплять файлы к сообщениям
    Вы можете скачивать файлы