Доктор Стрэндж

Лицензия

Добыча

Дубляж

Уэнсдэй

1 сезон

Тор

Дубляж

В эфире

Дубляж

Там, где раки поют

MVO

Властелин колец

1 сезон

Deluxe

pack

Рекомендуем

30

Пиратка

ВАЖНО

ВАЖНО

Ghostwire

Пиратка

jed

RePack

nioh2

RePack

RDR2

RePack

NEED FOR SPEED™ PAYBACK

RePack

скачать торрент

Кинопоиск HD

Острые козырьки 6 сезон

6 сезон

FAR CRY 6

RePack

скачать торрент

Лицензия

скачать торрент

MVO

1

1 сезон

скачать торрент

1 сезон

скачать торрент

Лицензия

  

Техасская резня бензопилой: Кожаное лицо / Leatherface (Александр Бустильо, Жюльен Мори) [2017, Ужасы, триллер, BD Remux 1080p] Дубляж [iTunes]

Техасская резня бензопилой: Кожаное лицо через торрент pb.wtf

Размер: 23.59 GB | Добавлен: 4 года 11 мес. назад | Торрент скачан:58 раз
Смотреть онлайн | Скачать   

14-12-2017 08:34 Техасская резня бензопилой: Кожаное лицо Скачать торрент  

Техасская резня бензопилой: Кожаное лицо
/
Leatherface
Год выпуска: 2017
Страна: США
Жанр: Ужасы, триллер
Продолжительность: 01:27:41
Перевод: Дублированный | iTunes
Субтитры: Английские

Режиссер: Александр Бустильо, Жюльен Мори

rating

В ролях:

Стивен Дорфф, Ванесса Грасс, Сэм Страйк, Лили Тейлор, Финн Джонс, Николь Эндрюс, Джеймс Блур, Сэм Коулман, Симона Левин, Кристофер Адамсон, Джулиан Костов, Джессика Мэдсен, Борис Кабакчиев, Йен Фишер, Велизар Пеев, Деян Ангелов, Лорина Камбурова, Нэйтан Купер

Описание:

При побеге из лечебницы для душевнобольных, четверо подростков похищают молодую медсестру. В погоню за ними пускается отряд полицейских во главе с техасским рейнджером Хэлом Хартменом, мстительным и беспощадным. Один из беглецов встает на полный трагедий и ужасов путь, который превратит его в маньяка — легенду по имени Кожаное лицо.

Качество: BD Remux 1080p
Формат: MKV
Видео кодек: H.264
Аудио кодек: AC3/DTS

Видео: MPEG-4 AVC, 1920x1080, 43.2 Mbit/s, 23.976 fps
Аудио#1: 48 kHz, AC3, 5.1, 384 Kbps | Дублированный | iTunes | RUS |
Аудио#2: 48 kHz, DTS-HD MA, 5.1, 3961 Kbps | Оригинал | ENG |


Релиз от:
скриншот   скриншот   скриншот   скриншот   скриншот  

General
Unique ID : 193105603412479043201503806776093083117 (0x9146C951C78C723D998B007725DA85ED)
Complete name : G:VideoSSDLeatherface.2017.BDREMUX.1080p.ExKinoRay.mkv
Format : Matroska
Format version : Version 4 / Version 2
File size : 23.6 GiB
Duration : 1 h 27 min
Overall bit rate mode : Variable
Overall bit rate : 38.5 Mb/s
Movie name : Leatherface 2017 from ExKinoRay
Encoded date : UTC 2017-12-14 08:07:08
Writing application : mkvmerge v18.0.0 ('Apricity') 64-bit
Writing library : libebml v1.3.5 + libmatroska v1.4.8

Video
ID : 1
Format : AVC
Format/Info : Advanced Video Codec
Format profile : [email protected]
Format settings : CABAC / 4 Ref Frames
Format settings, CABAC : Yes
Format settings, RefFrames : 4 frames
Codec ID : V_MPEG4/ISO/AVC
Duration : 1 h 27 min
Bit rate mode : Variable
Bit rate : 34.2 Mb/s
Maximum bit rate : 37.0 Mb/s
Width : 1 920 pixels
Height : 1 080 pixels
Display aspect ratio : 16:9
Frame rate mode : Constant
Frame rate : 23.976 (24000/1001) FPS
Color space : YUV
Chroma subsampling : 4:2:0
Bit depth : 8 bits
Scan type : Progressive
Bits/(Pixel*Frame) : 0.687
Stream size : 20.9 GiB (89%)
Language : English
Default : Yes
Forced : No

Audio #1
ID : 2
Format : AC-3
Format/Info : Audio Coding 3
Format settings, Endianness : Big
Codec ID : A_AC3
Duration : 1 h 27 min
Bit rate mode : Constant
Bit rate : 384 kb/s
Channel(s) : 6 channels
Channel positions : Front: L C R, Side: L R, LFE
Sampling rate : 48.0 kHz
Frame rate : 31.250 FPS (1536 SPF)
Bit depth : 16 bits
Compression mode : Lossy
Stream size : 241 MiB (1%)
Title : iTunes
Language : Russian
Service kind : Complete Main
Default : Yes
Forced : No

Audio #2
ID : 3
Format : DTS
Format/Info : Digital Theater Systems
Format profile : MA / Core
Mode : 16
Format settings, Endianness : Big
Codec ID : A_DTS
Duration : 1 h 27 min
Bit rate mode : Variable / Constant
Bit rate : 3 961 kb/s / 1 509 kb/s
Channel(s) : 6 channels
Channel positions : Front: L C R, Side: L R, LFE
Sampling rate : 48.0 kHz
Frame rate : 93.750 FPS (512 SPF)
Bit depth : 24 bits
Compression mode : Lossless / Lossy
Stream size : 2.43 GiB (10%)
Title : Original
Language : English
Default : No
Forced : No

Text
ID : 4
Format : UTF-8
Codec ID : S_TEXT/UTF8
Codec ID/Info : UTF-8 Plain Text
Duration : 1 h 21 min
Bit rate : 36 b/s
Count of elements : 728
Stream size : 21.5 KiB (0%)
Title : Full
Language : English
Default : No
Forced : No

Menu
00:00:00.000 : en:00:00:00.000
00:04:27.476 : en:00:04:27.476
00:09:32.238 : en:00:09:32.238
00:15:17.917 : en:00:15:17.917
00:21:39.840 : en:00:21:39.840
00:26:36.595 : en:00:26:36.595
00:31:09.493 : en:00:31:09.493
00:35:54.235 : en:00:35:54.235
00:41:50.591 : en:00:41:50.591
00:48:27.738 : en:00:48:27.738
00:53:34.753 : en:00:53:34.753
00:57:36.620 : en:00:57:36.620
01:05:27.173 : en:01:05:27.173
01:09:48.601 : en:01:09:48.601
01:14:59.078 : en:01:14:59.078
01:18:26.660 : en:01:18:26.660




Скачать Техасская резня бензопилой: Кожаное лицо через торрент http://s012.radikal.ru/i320/1712/46/d91c23dd0046.jpg Скачать, смотреть онлайн Техасская резня бензопилой: Кожаное лицо бесплантно в хорошем качестве Описание: При побеге из лечебницы для душевнобольных, четверо подростков похищают молодую медсестру. В погоню за ними пускается отряд ... 9.8 10 5
Info! Серебряная раздача, засчитывается только 50% скачанного.
Торрент: Зарегистрирован [2017-12-14 08:34] · скачан: 58 раз
Статус: √ проверено
Размер: 23.59 GB
Как cкачать? Как скачать Техасская резня бензопилой: Кожаное лицо через торрент | UTorrent

% Раздел Тема Автор DL S | L
Ultra HD (UHD: 2K, 4K, 8K) [ 52.58 GB ] Техасская резня бензопилой: Кожаное лицо / Leatherface | Лицензия R5 | 2160p bober100 Скачать
1 | 0
Фильмы 2017 [DVDrip, WEB-DLRip, HDrip] (DUB, MVO) [ 1.76 GB ] Техасская резня бензопилой: Кожаное лицо / Leatherface | Лицензия R5 | BDRip-AVC, Дубляж (Лицензия R5 winchester00100010 Скачать
1 | 0
Фильмы [HD 720p, 1080p] (Хороший звук DUB, MVO) [ 4.68 GB ] Техасская резня бензопилой: Кожаное лицо / Leatherface | iTunes | 720p bober100 Скачать
1 | 0
Фильмы [HD 720p, 1080p] (Хороший звук DUB, MVO) [ 8.98 GB ] Техасская резня бензопилой: Кожаное лицо / Leatherface | iTunes | 1080p bober100 Скачать
1 | 0
Фильмы 2017 [DVDrip, WEB-DLRip, HDrip] (DUB, MVO) [ 1.46 GB ] Техасская резня бензопилой: Кожаное лицо / Leatherface | Лицензия | BDRip Twi7ter Скачать
1 | 0
Фильмы 2017 [DVDrip, WEB-DLRip, HDrip] (DUB, MVO) [ 746 MB ] Техасская резня бензопилой: Кожаное лицо / Leatherface | iTunes | HDRip bober100 Скачать
1 | 0
Фильмы 2017 [DVDrip, WEB-DLRip, HDrip] (DUB, MVO) [ 1.6 GB ] Техасская резня бензопилой: Кожаное лицо / Leatherface | iTunes | DLRip-AVC bober100 Скачать
1 | 0

28-11-2019 20:33  


Отключить вcю реклaмy на сайте, в т.ч. и в плеере онлайн просмотра!

    Дорогой пользователь! Огромная просьба, поблагодарите релизера, оцените раздачу и оставьте свои комментарий, если Вы скачали Техасская резня бензопилой: Кожаное лицо через торрент бесплатно!!
    Комментировать посты могут только пользователи прошедшие не сложную регистрацию
    Показать сообщения:    


    Техасская резня бензопилой: Кожаное лицо через торрент
    Скачать бесплатно Техасская резня бензопилой: Кожаное лицо
    Техасская резня бензопилой: Кожаное лицо скачать торрент
    Техасская резня бензопилой: Кожаное лицо смотреть онлайн
    Cкачать фильм Техасская резня бензопилой: Кожаное лицо бесплатно
    Техасская резня бензопилой: Кожаное лицо скачать торрент в хорошем качестве
    Техасская резня бензопилой: Кожаное лицо смотреть онлайн бесплатно в хорошем качестве
    Вы не можете начинать темы
    Вы не можете отвечать на сообщения
    Вы не можете редактировать свои сообщения
    Вы не можете удалять свои сообщения
    Вы не можете голосовать в опросах
    Вы не можете прикреплять файлы к сообщениям
    Вы можете скачивать файлы
    Техасская резня бензопилой: Кожаное лицо / Leatherface [2017, Ужасы, триллер, BD Remux 1080p] Дубляж [iTunes] смотреть онлайн, скачать торрент picoco.icu