Доктор Стрэндж

Лицензия

Добыча

Дубляж

Уэнсдэй

1 сезон

Тор

Дубляж

В эфире

Дубляж

Там, где раки поют

MVO

Властелин колец

1 сезон

Deluxe

pack

Рекомендуем

30

Пиратка

ВАЖНО

ВАЖНО

Ghostwire

Пиратка

jed

RePack

nioh2

RePack

RDR2

RePack

NEED FOR SPEED™ PAYBACK

RePack

скачать торрент

Кинопоиск HD

Острые козырьки 6 сезон

6 сезон

FAR CRY 6

RePack

скачать торрент

Лицензия

скачать торрент

MVO

1

1 сезон

скачать торрент

1 сезон

скачать торрент

Лицензия

  

Терминатор 2: Судный День / Terminator 2: Judgment Day (Джеймс Кэмерон) [1991, Фантастика, боевик, триллер, BDRemux 1080p] [Специальная расширенная версия / Extended Special Edition] 2xMVO+2xAVO+2xVO

Терминатор 2: Судный День через торрент pb.wtf

Размер: 33.27 GB | Добавлен: 4 года 11 мес. назад | Торрент скачан:145 раз
Смотреть онлайн | Скачать   

14-12-2017 13:35 Терминатор 2: Судный День Скачать торрент  

Терминатор 2: Судный День / Terminator 2: Judgment Day Год выпуска: 1991
Страна: США, Франция
Жанр: Фантастика, боевик, триллер
Продолжительность: 02:36:08

Перевод#1: Авторский (одноголосый закадровый) Дмитрий Goblin Пучков
Перевод#2: Профессиональный (многоголосый закадровый) Киномания
Перевод#3: Профессиональный (многоголосый закадровый) Позитив
Перевод#4: Авторский (одноголосый закадровый) Андрей Гаврилов #1
Перевод#5: Авторский (одноголосый закадровый) Андрей Гаврилов #3
Перевод#6: Одноголосый закадровый Андрей Тенетко/Lostfilm
Перевод#7: Одноголосый закадровый В. Дохалов (поздний)

Субтитры: русские (full), английские (full)

Режиссёр: Джеймс Кэмерон / James Cameron

В ролях:

Арнольд Шварценеггер, Линда Хэмилтон, Эдвард Ферлонг, Роберт Патрик, Эрл Боэн, Джон Мортон, Дэнни Кукси, Дженнет Голдстин, Ксандер Беркли

Описание:

Прошло более десяти лет с тех пор, как киборг-терминатор из 2029 года пытался уничтожить Сару Коннор — женщину, чей будущий сын выиграет войну человечества против машин.
Теперь у Сары родился сын Джон и время, когда он поведёт за собой выживших людей на борьбу с машинами, неумолимо приближается. Именно в этот момент из постапокалиптического будущего прибывает новый терминатор — практически неуязвимый и способный принимать любое обличье. Цель нового терминатора уже не Сара, а уничтожение молодого Джона Коннора.
Однако шансы Джона на спасение существенно повышаются, когда на помощь приходит перепрограммированный сопротивлением терминатор предыдущего поколения. Оба киборга вступают в смертельный бой, от исхода которого зависит судьба человечества.

Сохранены оригинальные главы как на Blu-ray

rating

Качество: BDRemux 1080p
Формат: MKV

Видео: AVC, 1920x1080, 23.976 fps, ~20.5 Мбит/сек, ~0.412 bit/pixel
Аудио Russian#1: DTS, 48 kHz, 6 ch, 1510 kbps Дмитрий Goblin Пучков
Аудио Russian#2: DTS, 48 kHz, 6 ch, 1510 kbps Киномания
Аудио Russian#3: DTS, 48 kHz, 6 ch, 755 kbps Позитив
Аудио Russian#4: AC3, 48 kHz, 6 ch, 448 kbps Андрей Гаврилов #1
Аудио Russian#5: AC3, 48 kHz, 6 ch, 640 kbps Андрей Гаврилов #3
Аудио Russian#6: AC3, 48 kHz, 6 ch, 448 kbps Андрей Тенетко/Lostfilm
Аудио Russian#7: AC3, 48 kHz, 6 ch, 448 kbps В. Дохалов (поздний)
Аудио English#8: DTS-HD, 48 kHz, 6 ch, 3888 kbps kbps (DTS Core, 48 kHz, 6 ch, 1509 kbps kbps) Английский|
скриншот   скриншот   скриншот   скриншот  

---------2D---------------------3D--------------------------Old BD-----скриншот  скриншот  скриншот  
скриншот   скриншот   скриншот  

скриншот   скриншот   скриншот  

Полное имя : E:\Loading\Terminator.2.Judgment.Day.1991.EXTENDED.REMASTERED.BluRay.Remux.1080p.7rus.by.AKTEP.mkv
Формат : Matroska
Версия формата : Version 4 / Version 2
Размер файла : 33,3 Гбайт
Продолжительность : 2 ч. 36 м.
Режим общего битрейта : Переменный
Общий поток : 30,5 Мбит/сек
Дата кодирования : UTC 2017-12-11 15:27:22
Программа кодирования : mkvmerge v6.2.0 ('Promised Land') built on Apr 28 2013 12:22:01
Библиотека кодирования : libebml v1.3.0 + libmatroska v1.4.0

Видео
Идентификатор : 1
Формат : AVC
Формат/Информация : Advanced Video Codec
Профиль формата : [email protected]
Параметр CABAC формата : Да
Параметр ReFrames формата : 4 кадра
Идентификатор кодека : V_MPEG4/ISO/AVC
Продолжительность : 2 ч. 36 м.
Вид битрейта : Переменный
Максимальный битрейт : 31,0 Мбит/сек
Ширина : 1920 пикселей
Высота : 1080 пикселей
Соотношение сторон : 16:9
Режим частоты кадров : Постоянный
Частота кадров : 23,976 кадра/сек
Цветовое пространство : YUV
Субдискретизация насыщенности : 4:2:0
Битовая глубина : 8 бит
Тип развёртки : Прогрессивная
Язык : English
Default : Да
Forced : Нет

Аудио #1
Идентификатор : 2
Формат : DTS
Формат/Информация : Digital Theater Systems
Режим : 16
Параметр Endianness формата : Big
Идентификатор кодека : A_DTS
Продолжительность : 2 ч. 36 м.
Вид битрейта : Постоянный
Битрейт : 1510 Кбит/сек
Каналы : 6 каналов
Расположение каналов : Front: L C R, Side: L R, LFE
Частота : 48,0 КГц
Битовая глубина : 24 бит
Метод сжатия : С потерями
Размер потока : 1,65 Гбайт (5%)
Заголовок : Пучков (2003)
Язык : Russian
Default : Да
Forced : Нет

Аудио #2
Идентификатор : 3
Формат : DTS
Формат/Информация : Digital Theater Systems
Режим : 16
Параметр Endianness формата : Big
Идентификатор кодека : A_DTS
Продолжительность : 2 ч. 36 м.
Вид битрейта : Постоянный
Битрейт : 1510 Кбит/сек
Каналы : 6 каналов
Расположение каналов : Front: L C R, Side: L R, LFE
Частота : 48,0 КГц
Битовая глубина : 24 бит
Метод сжатия : С потерями
Размер потока : 1,65 Гбайт (5%)
Заголовок : Киномания
Язык : Russian
Default : Нет
Forced : Нет

Аудио #3
Идентификатор : 4
Формат : DTS
Формат/Информация : Digital Theater Systems
Режим : 16
Параметр Endianness формата : Big
Идентификатор кодека : A_DTS
Продолжительность : 2 ч. 36 м.
Вид битрейта : Постоянный
Битрейт : 755 Кбит/сек
Каналы : 6 каналов
Расположение каналов : Front: L C R, Side: L R, LFE
Частота : 48,0 КГц
Битовая глубина : 24 бит
Метод сжатия : С потерями
Размер потока : 843 Мбайт (2%)
Заголовок : Позитив + Киномания
Язык : Russian
Default : Нет
Forced : Нет

Аудио #4
Идентификатор : 5
Формат : AC-3
Формат/Информация : Audio Coding 3
Расширение режима : CM (complete main)
Параметр Endianness формата : Big
Идентификатор кодека : A_AC3
Продолжительность : 2 ч. 36 м.
Вид битрейта : Постоянный
Битрейт : 448 Кбит/сек
Каналы : 6 каналов
Расположение каналов : Front: L C R, Side: L R, LFE
Частота : 48,0 КГц
Битовая глубина : 16 бит
Метод сжатия : С потерями
Размер потока : 500 Мбайт (1%)
Заголовок : Гаврилов #1
Язык : Russian
Default : Нет
Forced : Нет

Аудио #5
Идентификатор : 6
Формат : AC-3
Формат/Информация : Audio Coding 3
Расширение режима : CM (complete main)
Параметр Endianness формата : Big
Идентификатор кодека : A_AC3
Продолжительность : 2 ч. 36 м.
Вид битрейта : Постоянный
Битрейт : 640 Кбит/сек
Каналы : 6 каналов
Расположение каналов : Front: L C R, Side: L R, LFE
Частота : 48,0 КГц
Битовая глубина : 16 бит
Метод сжатия : С потерями
Размер потока : 715 Мбайт (2%)
Заголовок : Гаврилов #3
Язык : Russian
Default : Нет
Forced : Нет

Аудио #6
Идентификатор : 7
Формат : AC-3
Формат/Информация : Audio Coding 3
Расширение режима : CM (complete main)
Параметр Endianness формата : Big
Идентификатор кодека : A_AC3
Продолжительность : 2 ч. 36 м.
Вид битрейта : Постоянный
Битрейт : 448 Кбит/сек
Каналы : 6 каналов
Расположение каналов : Front: L C R, Side: L R, LFE
Частота : 48,0 КГц
Битовая глубина : 16 бит
Метод сжатия : С потерями
Размер потока : 500 Мбайт (1%)
Заголовок : Lostfilm
Язык : Russian
Default : Нет
Forced : Нет

Аудио #7
Идентификатор : 8
Формат : AC-3
Формат/Информация : Audio Coding 3
Расширение режима : CM (complete main)
Параметр Endianness формата : Big
Идентификатор кодека : A_AC3
Продолжительность : 2 ч. 36 м.
Вид битрейта : Постоянный
Битрейт : 448 Кбит/сек
Каналы : 6 каналов
Расположение каналов : Front: L C R, Side: L R, LFE
Частота : 48,0 КГц
Битовая глубина : 16 бит
Метод сжатия : С потерями
Размер потока : 500 Мбайт (1%)
Заголовок : В. Дохалов
Язык : Russian
Default : Нет
Forced : Нет

Аудио #8
Идентификатор : 9
Формат : DTS
Формат/Информация : Digital Theater Systems
Профиль формата : MA / Core
Режим : 16
Параметр Endianness формата : Big
Идентификатор кодека : A_DTS
Продолжительность : 2 ч. 36 м.
Вид битрейта : Переменный
Битрейт : Неизвестно / 1509 Кбит/сек
Каналы : 6 каналов
Расположение каналов : Front: L C R, Side: L R, LFE
Частота : 48,0 КГц
Битовая глубина : 24 бит
Метод сжатия : Без потерь / Lossy
Язык : English
Default : Нет
Forced : Нет

Текст #1
Идентификатор : 10
Формат : UTF-8
Идентификатор кодека : S_TEXT/UTF8
Идентификатор кодека/Информация : UTF-8 Plain Text
Язык : Russian
Default : Нет
Forced : Нет

Текст #2
Идентификатор : 11
Формат : UTF-8
Идентификатор кодека : S_TEXT/UTF8
Идентификатор кодека/Информация : UTF-8 Plain Text
Язык : English
Default : Нет
Forced : Нет

Меню
00:00:00.000 : en:Chapter 01
00:09:42.415 : en:Chapter 02
00:26:27.669 : en:Chapter 03
00:39:22.610 : en:Chapter 04
00:54:35.146 : en:Chapter 05
01:08:22.556 : en:Chapter 06
01:28:22.880 : en:Chapter 07
01:37:45.860 : en:Chapter 08
01:46:21.875 : en:Chapter 09
01:56:24.686 : en:Chapter 10
02:07:00.696 : en:Chapter 11
02:21:14.048 : en:Chapter 12



Скачать Терминатор 2: Судный День через торрент http://s11.radikal.ru/i183/1712/47/e1a64cdbe846.jpg Скачать, смотреть онлайн Терминатор 2: Судный День бесплантно в хорошем качестве Описание: Прошло более десяти лет с тех пор, как киборг-терминатор из 2029 года пытался уничтожить Сару Коннор — женщину, чей будущий сын ... 9.9 10 9
Info! Золотая раздача, скачанное не засчитывается.
Торрент: Зарегистрирован [2017-12-14 13:35] · скачан: 145 раз
Статус: √ проверено
Размер: 33.27 GB
Как cкачать? Как скачать Терминатор 2: Судный День через торрент | UTorrent

% Раздел Тема Автор DL S | L
Фильмы [HD 720p, 1080p] (Хороший звук DUB, MVO) [ 16.7 GB ] Терминатор 2: Судный день / Terminator 2: Judgment Day | MVO+6xAVO | 1080p, 5xMVO+6xAVO Userman4ik Скачать
1 | 1

28-11-2019 20:33  


Отключить вcю реклaмy на сайте, в т.ч. и в плеере онлайн просмотра!

14-12-2017 13:57 Терминатор 2: Судный День Скачать торрент  

Спасибо!



    Дорогой пользователь! Огромная просьба, поблагодарите релизера, оцените раздачу и оставьте свои комментарий, если Вы скачали Терминатор 2: Судный День через торрент бесплатно!!
    Комментировать посты могут только пользователи прошедшие не сложную регистрацию
    Показать сообщения:    


    Терминатор 2: Судный День через торрент
    Скачать бесплатно Терминатор 2: Судный День
    Терминатор 2: Судный День скачать торрент
    Терминатор 2: Судный День смотреть онлайн
    Cкачать фильм Терминатор 2: Судный День бесплатно
    Терминатор 2: Судный День скачать торрент в хорошем качестве
    Терминатор 2: Судный День смотреть онлайн бесплатно в хорошем качестве
    Вы не можете начинать темы
    Вы не можете отвечать на сообщения
    Вы не можете редактировать свои сообщения
    Вы не можете удалять свои сообщения
    Вы не можете голосовать в опросах
    Вы не можете прикреплять файлы к сообщениям
    Вы можете скачивать файлы
    Терминатор 2: Судный День / Terminator 2: Judgment Day [1991, Фантастика, боевик, триллер, BDRemux 1080p] [Специальная расширенная версия / Extended Special Edition] 2xMVO+2xAVO+2xVO смотреть онлайн, скачать торрент picoco.icu