MEGA NEWS Получи личный уникальный адрес сайта и защити себя от блокировок. Внимание количество ограничено!!!

iTunes

1+1

iTunes

мы

iTunes

1

iTunes

Чернобыль

iTunes

Ральф против интернета

Лицензия

ПШазам

Лицензия

Игра престолов

Лицензия

30
pack

ВАЖНО

!!Акция!!

Alien_RageХит недели

RePack

Resident Evil 21

ИГРА 18+

pack

RePack

Metro:Exodus

!!Акция!!

Alien_Rage

RePack

fifa19

RePack

Assassins Creed: Odyssey

RePack

NEED FOR SPEED™ PAYBACK

3 сезон

9 сезон

Бесстыжие 9 сезон

Все сериалы

все сериалы на PB.wtf

RePack

FAR CRY 5
Ребята, катастрофически не хватает 1900р. для оплаты серверов за АВГУСТ (всвязи с блокировками трафик упал в 3 раза), 1-2р., выручайте.
  

8 голов в одной сумке / 8 Heads in a Duffel Bag (Том Шульман) [1997 г, комедия, криминал, BDRip] DVO, AVO pb.wtf

8 голов в одной сумке через торрент pb.wtf

Размер: 1.45 GB | Добавлен: 1 год 10 мес. назад | Торрент скачан:29 раз
Скачать  

14-12-2017 17:54 8 голов в одной сумке Скачать торрент  

8 голов в одной сумке / 8 Heads in a Duffel Bag
Год выпуска: 1997
Страна: США, Великобритания
Жанр: комедия, криминал
Продолжительность: 01:35:15
Перевод: Профессиональный двухголосый, авторский

Режиссер: Том Шульман

rating

В ролях: Джо Пеши, Кристи Суонсон, Дэвид Спейд, Джордж Хэмилтон, Дайан Кэннон, Энди Комо, Тодд Луисо, Энтони Мангано, Джо Басиле, Эрнестин Мерсер

Описание: Томми Спинелли — наемный убийца, работающий на мафию. Убив по заказу восемь человек на тихоокеанском побережье Америки, он должен доставить их головы в Нью — Йорк, чтобы показать заказчику. В аэропорту происходит классическая путаница с багажом, и сумка с головами попадает в руки влюбленной пары. Мафия дает Спинелли два дня на то, чтобы он нашел пропажу. Томми вынужден мчаться за влюбленными и своей сумкой в Мехико.

Качество: BDRip (8 Heads in a Duffel Bag 1997 TT 1080p Blu-ray AVC DTS-HD MA 5.1-BaggerInc)
Формат: AVI
Видео: XviD, 1782 Кбит/с, 720x384, 23.976 кадр/с
Аудио #1: AC3, 2 ch, 192 Кбит/с | Профессиональный двухголосый (Гланц и Королева)
Аудио #2: AC3, 2 ch, 192 Кбит/с | Aвторский (В. Горчаков)
Релиз от: Koenig
скриншот   скриншот   скриншот   скриншот   скриншот   скриншот  

Общее
Полное имя : 8.Heads.in.a.Duffel.Bag.1997.BDRip.avi
Формат : AVI
Формат/Информация : Audio Video Interleave
Размер файла : 1,45 Гбайт
Продолжительность : 1 ч. 35 м.
Общий поток : 2180 Кбит/сек
Программа кодирования : VirtualDubMod 1.5.10.2 (build 2540/release)
Библиотека кодирования : VirtualDubMod build 2540/release

Видео
Идентификатор : 0
Формат : MPEG-4 Visual
Профиль формата : Advanced Simple@L5
Параметр BVOP формата : 1
Параметр QPel формата : Нет
Параметр GMC формата : Без точки перехода
Параметр матрицы формата : Выборочная
Идентификатор кодека : XVID
Идентификатор кодека/Подсказка : XviD
Продолжительность : 1 ч. 35 м.
Битрейт : 1782 Кбит/сек
Ширина : 720 пикселей
Высота : 384 пикселя
Соотношение сторон : 1,85:1
Частота кадров : 23,976 (24000/1001) кадра/сек
Цветовое пространство : YUV
Субдискретизация насыщенности : 4:2:0
Битовая глубина : 8 бит
Тип развёртки : Прогрессивная
Метод сжатия : С потерями
Бит/(Пиксели*Кадры) : 0.269
Размер потока : 1,19 Гбайт (82%)
Библиотека кодирования : XviD 65

Аудио #1
Идентификатор : 1
Формат : AC-3
Формат/Информация : Audio Coding 3
Параметр Endianness формата : Big
Идентификатор кодека : 2000
Продолжительность : 1 ч. 35 м.
Вид битрейта : Постоянный
Битрейт : 192 Кбит/сек
Каналы : 2 канала
Расположение каналов : Front: L R
Частота : 48,0 КГц
Частота кадров : 31,250 кадров/сек (1536 spf)
Битовая глубина : 16 бит
Метод сжатия : С потерями
Размер потока : 131 Мбайт (9%)
Выравнивание : Разделение по промежуткам
Продолжительность промежутка : 42 мс. (1,00 видеокадр)
Время предзагрузки промежутка : 500 мс.
ServiceKind/String : Complete Main

Аудио #2
Идентификатор : 2
Формат : AC-3
Формат/Информация : Audio Coding 3
Параметр Endianness формата : Big
Идентификатор кодека : 2000
Продолжительность : 1 ч. 35 м.
Вид битрейта : Постоянный
Битрейт : 192 Кбит/сек
Каналы : 2 канала
Расположение каналов : Front: L R
Частота : 48,0 КГц
Частота кадров : 31,250 кадров/сек (1536 spf)
Битовая глубина : 16 бит
Метод сжатия : С потерями
Размер потока : 131 Мбайт (9%)
Выравнивание : Разделение по промежуткам
Продолжительность промежутка : 42 мс. (1,00 видеокадр)
Время предзагрузки промежутка : 500 мс.
ServiceKind/String : Complete Main

pb.wtf



Скачать 8 голов в одной сумке через торрент http://pic1.kartinco.top/images/11/r7zg8.jpg Скачать фильм 8 голов в одной сумке через торрент бесплантно в хорошем качестве Описание: Томми Спинелли — наемный убийца, работающий на мафию. Убив по заказу восемь человек на тихоокеанском побережье Америки, он должен ... 10 10 1
Торрент: Зарегистрирован [2017-12-14 17:54] · скачан: 29 раз
Статус: √ проверено
Размер: 1.45 GB
Как cкачать? Как скачать 8 голов в одной сумке через торрент | qTorrent

% Раздел Тема Автор DL S | L
Фильмы (WEB-DL 720p, 1080p) [ 3.25 GB ] Восемь голов в одной сумке / 8 Heads in a Duffel Bag [1997 WEB-DL 720p] [DVO] + [AVO] killermax2013 Скачать
1 | 0
Фильмы (WEB-DL 720p, 1080p) [ 5.87 GB ] Восемь голов в одной сумке / 8 Heads in a Duffel Bag [1997 HDTVRip 720p] [DVO] ) + [AVO] Бавария Скачать
1 | 0


>> Регистрируемся здесь <<






Отзывы и комментарии о схеме читаем и пишем здесь: ---> Отзывы и комментарии о схеме

Новые благодарочки в телеграм довольных пользователей:
скриншот   скриншот   скриншот   скриншот   скриншот
    Дорогой пользователь! Огромная просьба, поблагодарите релизера, оцените раздачу и оставьте свои комментарий, если Вы скачали 8 голов в одной сумке через торрент бесплатно! Внесите свою лепту в развитие PiratBit!
    Комментировать посты могут только пользователи прошедшие не сложную регистрацию
    Показать сообщения:    

    8 голов в одной сумке через торрент
    Скачать бесплатно 8 голов в одной сумке
    8 голов в одной сумке скачать торрент
    8 голов в одной сумке смотреть онлайн
    Cкачать фильм 8 голов в одной сумке бесплатно
    8 голов в одной сумке скачать торрент в хорошем качестве
    8 голов в одной сумке смотреть онлайн бесплатно в хорошем качестве


    Вы не можете начинать темы
    Вы не можете отвечать на сообщения
    Вы не можете редактировать свои сообщения
    Вы не можете удалять свои сообщения
    Вы не можете голосовать в опросах
    Вы не можете прикреплять файлы к сообщениям
    Вы можете скачивать файлы