Ссылка на приватное зеркало нашего сайта всего за 1$. Внимание количество ограничено!!!

2 сезон

iTunes

1 сезон

1

2 сезон

2 сезон

iTunes

1 сезон

RePack

30

Ultimate

ВАЖНО

ИГРА 18+

pack

RePack

MK11
pack

Забери бонус

RePack

jed

!!Акция!!

Alien_Rage

RePack

fifa19

RePack

Assassins Creed: Odyssey

RePack

NEED FOR SPEED™ PAYBACK

4 сезон

9 сезон

Бесстыжие 9 сезон

Все сериалы

все сериалы на PB.wtf

RePack

FAR CRY 5
  

Она же Грэйс / Alias Grace / Сезон 1 / Серии 1-6 из 6 (Мэри Хэррон) [2017, триллер, драма, криминал, биография, WEB-DL 720p] MVO [Jaskier] pb.wtf

Она же Грэйс через торрент pb.wtf

Размер: 9.26 GB | Добавлен: 2 года 11 мес. назад | Торрент скачан:23 раза
Скачать  

15-12-2017 05:17 Она же Грэйс Скачать торрент  

◈ Она же Грэйс / Alias Grace ◈Информация о фильме:

✦ Год выпуска: 2017
✦ Страна: Великобритания
✦ Жанр: триллер, драма, криминал, биография
✦ Продолжительность: ~ 00:43:00
✦ Перевод: Профессиональный (многоголосый) - Jaskier
✦ Субтитры: отсутствуют
Присутствует аудио-реклама.

✦ Режиссер: Мэри Хэррон

rating

В ролях:

Сара Гадон, Эдвард Холкрофт, Закари Левай, Керр Логан, Пол Гросс, Стефен Джофф, Ребекка Лиддьярд, Уилл Боус, Кейт Росс и др.

Описание:

История Грейс Маркс - горничной-иммигрантки из Ирландии, осуждённой за убийство своего работодателя Томаса Киннера в 1843 году. Грейс утверждает, что ничего не помнит о совершённом преступлении, однако факты неопровержимы. Десять лет спустя доктор Саймон Джордон пытается помочь женщине восстановить события прошлого.

Информация о файле:

✦ Качество: WEB-DL 720p
✦ Формат: MKV
✦ Видео кодек: H.264
✦ Аудио кодек: AC3

✦ Видео: ~ 4 100 kbps, 1280x720, 23.976 fps
✦ Аудио#1: Rus: AC3, 6 ch, 384 kbps
✦ Аудио#2: Eng: AC3, 6 ch, 384 kbps


Переведено и озвучено студией JASKIER

скриншот   скриншот   скриншот  

Общее
Уникальный идентификатор : 173787674884217649862712108379526451636 (0x82BE49E8681D9419B378EE647A98D1B4)
Полное имя : D:\Alias Grace. Season 1 (WEB-DL l 720p l Jaskier)\Alias.Grace.S01E01.720p.WEB-DL.DD5.1.H264-Jaskier.mkv
Формат : Matroska
Версия формата : Version 2
Размер файла : 1,55 Гбайт
Продолжительность : 45 м. 20 с.
Общий поток : 4892 Кбит/сек
Дата кодирования : UTC 2017-10-25 08:19:19
Программа кодирования : mkvmerge v7.8.0 ('River Man') 32bit built on Apr 3 2015 12:11:22
Библиотека кодирования : libebml v1.3.1 + libmatroska v1.4.2

Видео
Идентификатор : 1
Формат : AVC
Формат/Информация : Advanced Video Codec
Профиль формата : High@L3.1
Параметр CABAC формата : Нет
Параметр ReFrames формата : 2 кадра
Идентификатор кодека : V_MPEG4/ISO/AVC
Продолжительность : 45 м. 20 с.
Битрейт : 4027 Кбит/сек
Ширина : 1280 пикселей
Высота : 720 пикселей
Соотношение сторон : 16:9
Режим частоты кадров : Постоянный
Частота кадров : 23,976 (24000/1001) кадра/сек
Цветовое пространство : YUV
Субдискретизация насыщенности : 4:2:0
Битовая глубина : 8 бит
Тип развёртки : Прогрессивная
Бит/(Пиксели*Кадры) : 0.182
Размер потока : 1,28 Гбайт (82%)
Язык : English
Default : Да
Forced : Нет
Цветовой диапазон : Limited
Основные цвета : BT.709
Характеристики трансфера : BT.709
Коэффициенты матрицы : BT.709

Аудио #1
Идентификатор : 2
Формат : AC-3
Формат/Информация : Audio Coding 3
Расширение режима : CM (complete main)
Параметр Endianness формата : Big
Идентификатор кодека : A_AC3
Продолжительность : 45 м. 20 с.
Вид битрейта : Постоянный
Битрейт : 384 Кбит/сек
Каналы : 6 каналов
Расположение каналов : Front: L C R, Side: L R, LFE
Частота : 48,0 КГц
Частота кадров : 31,250 кадров/сек (1536 spf)
Метод сжатия : С потерями
Размер потока : 125 Мбайт (8%)
Заголовок : Jaskier
Язык : Russian
Default : Да
Forced : Нет

Аудио #2
Идентификатор : 3
Формат : AC-3
Формат/Информация : Audio Coding 3
Расширение режима : CM (complete main)
Параметр Endianness формата : Big
Идентификатор кодека : A_AC3
Продолжительность : 45 м. 20 с.
Вид битрейта : Постоянный
Битрейт : 384 Кбит/сек
Каналы : 6 каналов
Расположение каналов : Front: L C R, Side: L R, LFE
Частота : 48,0 КГц
Частота кадров : 31,250 кадров/сек (1536 spf)
Метод сжатия : С потерями
Размер потока : 125 Мбайт (8%)
Язык : English
Default : Нет
Forced : Нет

pb.wtf



Скачать Она же Грэйс через торрент http://s46.radikal.ru/i111/1710/87/9714511c1911.png Скачать фильм Она же Грэйс через торрент бесплантно в хорошем качестве Описание: История Грейс Маркс - горничной-иммигрантки из Ирландии, осуждённой за убийство своего работодателя Томаса Киннера в 1843 году. ... 10 10 3
Info! Серебряная раздача, засчитывается только 50% скачанного.
Торрент: Зарегистрирован [2017-12-15 05:17] · скачан: 23 раз
Статус: √ проверено
Размер: 9.26 GB
Как cкачать? Как скачать Она же Грэйс через торрент | qTorrent

% Раздел Тема Автор DL S | L
Зарубежные сериалы [ 11.43 GB ] Она же Грэйс / Alias Grace / Сезон 1 / Серии 1-6 из 6 [2017 биография WEB-DL 1080p] MVO [Jaskier] bober100 Скачать
1 | 1
Зарубежные сериалы [ 3.4 GB ] Она же Грэйс / Alias Grace / Сезон 1 / Серии 1-6 из 6 [2017 биография WEB-DLRip] MVO [Jaskier] bober100 Скачать
1 | 0

28-11-2019 20:33  

Отключить всю рекламу на сайте

    Дорогой пользователь! Огромная просьба, поблагодарите релизера, оцените раздачу и оставьте свои комментарий, если Вы скачали Она же Грэйс через торрент бесплатно! Внесите свою лепту в развитие PiratBit!
    Комментировать посты могут только пользователи прошедшие не сложную регистрацию
    Показать сообщения:    

    Она же Грэйс через торрент
    Скачать бесплатно Она же Грэйс
    Она же Грэйс скачать торрент
    Она же Грэйс смотреть онлайн
    Cкачать фильм Она же Грэйс бесплатно
    Она же Грэйс скачать торрент в хорошем качестве
    Она же Грэйс смотреть онлайн бесплатно в хорошем качестве


    Вы не можете начинать темы
    Вы не можете отвечать на сообщения
    Вы не можете редактировать свои сообщения
    Вы не можете удалять свои сообщения
    Вы не можете голосовать в опросах
    Вы не можете прикреплять файлы к сообщениям
    Вы можете скачивать файлы