2 сезон

iTunes

1 сезон

1

iTunes

iTunes

iTunes

1 сезон

RePack

30

ИГРА 18+

pack

ВАЖНО

!!Акция!!

Alien_RageХит недели

RePack

MK11
pack

Забери бонус

RePack

jed

!!Акция!!

Alien_Rage

RePack

fifa19

RePack

Assassins Creed: Odyssey

RePack

NEED FOR SPEED™ PAYBACK

4 сезон

9 сезон

Бесстыжие 9 сезон

Все сериалы

все сериалы на PB.wtf

RePack

FAR CRY 5
  

Фрида / Frida (Джули Тэймор) [2002, драма, мелодрама, биография, BDRip 720p by msltel] DUB, DVO, AVO pb.wtf

Фрида через торрент pb.wtf

Размер: 6.35 GB | Добавлен: 2 года 10 мес. назад | Торрент скачан:55 раз
Скачать  

15-12-2017 07:00 Фрида Скачать торрент  

Название: Фрида
Оригинальное название: Frida
Год выпуска: 2002
Страна: США, Канада, Мексика
Жанр: драма, мелодрама, биография
Продолжительность: 02:02:56
Перевод: дублированный, профессиональный двухголосый, авторский

Режиссер: Джули Тэймор
В ролях: Сальма Хайек, Альфред Молина, Валерия Голино, Эшли Джадд, Антонио Бандерас, Эдвард Нортон, Саффрон Берроуз, Джеффри Раш, Миа Маэстро, Амелия Запата, Алехандро Усигли, Диего Луна, Люсия Браво, Патриция Рейс Спиндола, Роджер Рис, Фермин Мартинес, Роберто Медина, Лила Даунс, Марта Клаудия Морено, Мария Инес Пинтадо, Айда Лопез, Ивана Сейенович, Джулиан Седжвик, Маргарита Санс, Омар Родригез, Энтони Альварез, Чавела Варгас, Хорхе Сепеда

О фильме: Неужели чтобы открыть в себе такой самобытный талант, надо пройти через нечеловеческую боль? Неужели чтобы с твоих полотен полилась настоящая поэзия, надо разбить сердце вдребезги? Ей было всего 17 лет, когда авария сломала тело и всего 22 года, когда любовь пронзила душу на всю оставшуюся жизнь... Фрида Кало, мексиканская художница, чья судьба оказалась ярче любой картины и Диего Ривера, художник-коммунист, чей большой талант так и не позволил дать ей обыкновенного человеческого счастья... Фильм-повесть о необыкновенных людях, чьи непростые жизни оставили в истории современного искусства такой глубокий след... Фильм основан на книге Хейден Херреры «Фрида: Биография Фриды Кало».



Качество: BDRip 720p
Формат: MKV
Видео: MPEG-4 AVC, 5666 Кбит/с, 1280x694, 23.976 кадр/с
Аудио 1: русский, AC3, 448 kbps, 6 ch, 48 kHz [дублированный]
Аудио 2: русский, AC3, 448 kbps, 6 ch, 48 kHz [профессиональный двухголосый, Пётр Гланц и Инна Королёва]
Аудио 3: русский, AC3, 384 kbps, 6 ch, 48 kHz [авторский, Юрий Живов]
Аудио 4: английский, AC3, 448 kbps, 6 ch, 48 kHz [оригинал]
Субтитры 1: русские
Субтитры 2: английские
Неименованные главы/чаптеры.
Общее
Уникальный идентификатор : 222947476060353781449918822495867149814 (0xA7BA1F3C81E2EA07B9709D5043509DF6)
Полное имя : D:\Video\Фрида.2002.BDRip.720p by msltel.mkv
Формат : Matroska
Версия формата : Version 4 / Version 2
Размер файла : 6,35 Гбайт
Продолжительность : 2 ч. 2 м.
Общий поток : 7396 Кбит/сек
Название фильма : Rip by msltel
Дата кодирования : UTC 2017-12-14 12:15:38
Программа кодирования : mkvmerge v8.2.0 ('World of Adventure') 64bit
Библиотека кодирования : libebml v1.3.1 + libmatroska v1.4.2

Видео
Идентификатор : 1
Формат : AVC
Формат/Информация : Advanced Video Codec
Профиль формата : High@L4.1
Настройки формата : CABAC / 9 Ref Frames
Параметр CABAC формата : Да
Параметр RefFrames формата : 9 кадров
Идентификатор кодека : V_MPEG4/ISO/AVC
Продолжительность : 2 ч. 2 м.
Битрейт : 5666 Кбит/сек
Ширина : 1280 пикселей
Высота : 694 пикселя
Соотношение сторон : 1,85:1
Режим частоты кадров : Постоянный
Частота кадров : 23,976 (24000/1001) кадра/сек
Цветовое пространство : YUV
Субдискретизация насыщенности : 4:2:0
Битовая глубина : 8 бит
Тип развёртки : Прогрессивная
Бит/(Пиксели*Кадры) : 0.266
Размер потока : 4,87 Гбайт (77%)
Библиотека кодирования : x264 core 146 r2538 121396c
Настройки программы : cabac=1 / ref=9 / deblock=1:-3:-2 / analyse=0x3:0x113 / me=umh / subme=11 / psy=1 / psy_rd=1.00:0.15 / mixed_ref=1 / me_range=32 / chroma_me=1 / trellis=2 / 8x8dct=1 / cqm=0 / deadzone=21,11 / fast_pskip=0 / chroma_qp_offset=-3 / threads=6 / lookahead_threads=1 / sliced_threads=0 / nr=0 / decimate=1 / interlaced=0 / bluray_compat=0 / constrained_intra=0 / bframes=10 / b_pyramid=2 / b_adapt=2 / b_bias=0 / direct=1 / weightb=1 / open_gop=0 / weightp=2 / keyint=230 / keyint_min=23 / scenecut=40 / intra_refresh=0 / rc_lookahead=40 / rc=crf / mbtree=0 / crf=18.1 / qcomp=0.60 / qpmin=0 / qpmax=69 / qpstep=4 / vbv_maxrate=62500 / vbv_bufsize=78125 / crf_max=0.0 / nal_hrd=none / filler=0 / ip_ratio=1.40 / pb_ratio=1.30 / aq=1:1.00
Язык : English
Default : Да
Forced : Нет

Аудио #1
Идентификатор : 2
Формат : AC-3
Формат/Информация : Audio Coding 3
Идентификатор кодека : A_AC3
Продолжительность : 2 ч. 2 м.
Вид битрейта : Постоянный
Битрейт : 448 Кбит/сек
Каналы : 6 каналов
Расположение каналов : Front: L C R, Side: L R, LFE
Частота : 48,0 КГц
Частота кадров : 31,250 кадров/сек (1536 SPF)
Битовая глубина : 16 бит
Метод сжатия : С потерями
Размер потока : 393 Мбайт (6%)
Заголовок : DUB
Язык : Russian
ServiceKind/String : Complete Main
Default : Да
Forced : Нет

Аудио #2
Идентификатор : 3
Формат : AC-3
Формат/Информация : Audio Coding 3
Идентификатор кодека : A_AC3
Продолжительность : 2 ч. 2 м.
Вид битрейта : Постоянный
Битрейт : 448 Кбит/сек
Каналы : 6 каналов
Расположение каналов : Front: L C R, Side: L R, LFE
Частота : 48,0 КГц
Частота кадров : 31,250 кадров/сек (1536 SPF)
Битовая глубина : 16 бит
Метод сжатия : С потерями
Размер потока : 394 Мбайт (6%)
Заголовок : DVO.Пётр Гланц и Инна Королёва
Язык : Russian
ServiceKind/String : Complete Main
Default : Нет
Forced : Нет

Аудио #3
Идентификатор : 4
Формат : AC-3
Формат/Информация : Audio Coding 3
Идентификатор кодека : A_AC3
Продолжительность : 2 ч. 2 м.
Вид битрейта : Постоянный
Битрейт : 384 Кбит/сек
Каналы : 6 каналов
Расположение каналов : Front: L C R, Side: L R, LFE
Частота : 48,0 КГц
Частота кадров : 31,250 кадров/сек (1536 SPF)
Битовая глубина : 16 бит
Метод сжатия : С потерями
Размер потока : 337 Мбайт (5%)
Заголовок : Юрий Живов
Язык : Russian
ServiceKind/String : Complete Main
Default : Нет
Forced : Нет

Аудио #4
Идентификатор : 5
Формат : AC-3
Формат/Информация : Audio Coding 3
Идентификатор кодека : A_AC3
Продолжительность : 2 ч. 2 м.
Вид битрейта : Постоянный
Битрейт : 448 Кбит/сек
Каналы : 6 каналов
Расположение каналов : Front: L C R, Side: L R, LFE
Частота : 48,0 КГц
Частота кадров : 31,250 кадров/сек (1536 SPF)
Битовая глубина : 16 бит
Метод сжатия : С потерями
Размер потока : 394 Мбайт (6%)
Заголовок : original
Язык : English
ServiceKind/String : Complete Main
Default : Нет
Forced : Нет

Текст #1
Идентификатор : 6
Формат : UTF-8
Идентификатор кодека : S_TEXT/UTF8
Идентификатор кодека/Информация : UTF-8 Plain Text
Продолжительность : 1 ч. 56 м.
Битрейт : 74 бит/сек
ElementCount : 1076
Размер потока : 63,2 Кбайт (0%)
Заголовок : русские
Язык : Russian
Default : Нет
Forced : Нет

Текст #2
Идентификатор : 7
Формат : UTF-8
Идентификатор кодека : S_TEXT/UTF8
Идентификатор кодека/Информация : UTF-8 Plain Text
Продолжительность : 2 ч. 2 м.
Битрейт : 39 бит/сек
ElementCount : 1114
Размер потока : 35,8 Кбайт (0%)
Заголовок : английские
Язык : English
Default : Нет
Forced : Нет

Меню
00:00:00.000 : :Chapter 01
00:01:07.067 : :Chapter 02
00:02:12.132 : :Chapter 03
00:03:17.197 : :Chapter 04
00:04:22.262 : :Chapter 05
00:05:27.327 : :Chapter 06
00:06:32.392 : :Chapter 07
00:07:37.457 : :Chapter 08
00:08:42.522 : :Chapter 09
00:09:47.587 : :Chapter 10
00:10:52.652 : :Chapter 11
00:11:57.717 : :Chapter 12
00:13:02.782 : :Chapter 13
00:14:07.847 : :Chapter 14
00:15:12.912 : :Chapter 15
00:16:17.977 : :Chapter 16
00:17:23.042 : :Chapter 17
00:18:28.107 : :Chapter 18
00:19:33.172 : :Chapter 19
00:20:38.237 : :Chapter 20
00:21:43.302 : :Chapter 21
00:22:48.367 : :Chapter 22
00:23:53.432 : :Chapter 23
00:24:58.497 : :Chapter 24
00:26:03.562 : :Chapter 25
00:27:08.627 : :Chapter 26
00:28:13.692 : :Chapter 27
00:29:18.757 : :Chapter 28
00:30:23.822 : :Chapter 29
00:31:28.887 : :Chapter 30
00:32:33.952 : :Chapter 31
00:33:39.017 : :Chapter 32
00:34:44.082 : :Chapter 33
00:35:49.147 : :Chapter 34
00:36:54.212 : :Chapter 35
00:37:59.277 : :Chapter 36
00:39:04.342 : :Chapter 37
00:40:09.407 : :Chapter 38
00:41:14.472 : :Chapter 39
00:42:19.537 : :Chapter 40
00:43:24.602 : :Chapter 41
00:44:29.667 : :Chapter 42
00:45:34.732 : :Chapter 43
00:46:39.797 : :Chapter 44
00:47:44.862 : :Chapter 45
00:48:49.927 : :Chapter 46
00:49:54.992 : :Chapter 47
00:51:00.057 : :Chapter 48
00:52:05.122 : :Chapter 49
00:53:10.187 : :Chapter 50
00:54:15.252 : :Chapter 51
00:55:20.317 : :Chapter 52
00:56:25.382 : :Chapter 53
00:57:30.447 : :Chapter 54
00:58:35.512 : :Chapter 55
00:59:40.577 : :Chapter 56
01:00:45.642 : :Chapter 57
01:01:50.707 : :Chapter 58
01:02:55.772 : :Chapter 59
01:04:00.837 : :Chapter 60
01:05:05.902 : :Chapter 61
01:06:10.967 : :Chapter 62
01:07:16.032 : :Chapter 63
01:08:21.097 : :Chapter 64
01:09:26.162 : :Chapter 65
01:10:31.227 : :Chapter 66
01:11:36.292 : :Chapter 67
01:12:41.357 : :Chapter 68
01:13:46.422 : :Chapter 69
01:14:51.487 : :Chapter 70
01:15:56.552 : :Chapter 71
01:17:01.617 : :Chapter 72
01:18:06.682 : :Chapter 73
01:19:11.747 : :Chapter 74
01:20:16.812 : :Chapter 75
01:21:21.877 : :Chapter 76
01:22:26.942 : :Chapter 77
01:23:32.007 : :Chapter 78
01:24:37.072 : :Chapter 79
01:25:42.137 : :Chapter 80
01:26:47.202 : :Chapter 81
01:27:52.267 : :Chapter 82
01:28:57.332 : :Chapter 83
01:30:02.397 : :Chapter 84
01:31:07.462 : :Chapter 85
01:32:12.527 : :Chapter 86
01:33:17.592 : :Chapter 87
01:34:22.657 : :Chapter 88
01:35:27.722 : :Chapter 89
01:36:32.787 : :Chapter 90
01:37:37.852 : :Chapter 91
01:38:42.917 : :Chapter 92
01:39:47.982 : :Chapter 93
01:40:53.047 : :Chapter 94
01:41:58.112 : :Chapter 95
01:43:03.177 : :Chapter 96
01:44:08.242 : :Chapter 97
01:45:13.307 : :Chapter 98
01:46:18.372 : :Chapter 99
01:47:23.437 : :Chapter 100
01:48:28.502 : :Chapter 101
01:49:33.567 : :Chapter 102
01:50:38.632 : :Chapter 103
01:51:43.697 : :Chapter 104
01:52:48.762 : :Chapter 105
01:53:53.827 : :Chapter 106
01:54:58.892 : :Chapter 107
01:56:03.957 : :Chapter 108
01:57:09.022 : :Chapter 109
01:58:14.087 : :Chapter 110
01:59:19.152 : :Chapter 111
02:00:24.217 : :Chapter 112
02:01:29.282 : :Chapter 113
02:02:34.347 : :Chapter 114
02:03:39.412 : :Chapter 115
02:04:44.477 : :Chapter 116
02:05:49.542 : :Chapter 117
02:06:54.607 : :Chapter 118
02:07:59.672 : :Chapter 119
02:09:04.737 : :Chapter 120
02:10:09.802 : :Chapter 121
02:11:14.867 : :Chapter 122
02:12:19.932 : :Chapter 123
02:13:24.997 : :Chapter 124
02:14:30.062 : :Chapter 125
02:15:35.127 : :Chapter 126
02:16:40.192 : :Chapter 127
02:17:45.257 : :Chapter 128
02:18:50.322 : :Chapter 129
02:19:55.387 : :Chapter 130
pb.wtf



Скачать Фрида через торрент http://i069.radikal.ru/1712/e6/aa9faca485cc.jpg Скачать фильм Фрида через торрент бесплантно в хорошем качестве О фильме: Неужели чтобы открыть в себе такой самобытный талант, надо пройти через нечеловеческую боль? Неужели чтобы с твоих полотен ... 7.8 10 4
Info! Золотая раздача, скачанное не засчитывается.
Торрент: Зарегистрирован [2017-12-15 07:00] · скачан: 55 раз
Статус: √ проверено
Размер: 6.35 GB
Как cкачать? Как скачать Фрида через торрент | qTorrent

% Раздел Тема Автор DL S | L
Фильмы [HD 720p, 1080p] (Хороший звук DUB, MVO) [ 16.69 GB ] Фрида / Frida [2002 биография BDRip 1080p by msltel] DUB DVO AVO msltel Скачать
1 | 0
Фильмы [HD 720p, 1080p] (Хороший звук DUB, MVO) [ 11.51 GB ] Фрида / Frida [2002 биография BDRip 1080p от _denis_100 / NNNB] DUB DVO AVO Original + SUB _denis_100 Скачать
1 | 0

28-11-2019 20:33  

Отключить всю рекламу на сайте

    Дорогой пользователь! Огромная просьба, поблагодарите релизера, оцените раздачу и оставьте свои комментарий, если Вы скачали Фрида через торрент бесплатно! Внесите свою лепту в развитие PiratBit!
    Комментировать посты могут только пользователи прошедшие не сложную регистрацию
    Показать сообщения:    

    Фрида через торрент
    Скачать бесплатно Фрида
    Фрида скачать торрент
    Фрида смотреть онлайн
    Cкачать фильм Фрида бесплатно
    Фрида скачать торрент в хорошем качестве
    Фрида смотреть онлайн бесплатно в хорошем качестве


    Вы не можете начинать темы
    Вы не можете отвечать на сообщения
    Вы не можете редактировать свои сообщения
    Вы не можете удалять свои сообщения
    Вы не можете голосовать в опросах
    Вы не можете прикреплять файлы к сообщениям
    Вы можете скачивать файлы