Ссылка на приватное зеркало нашего сайта всего за 1$. Внимание количество ограничено!!!

2 сезон

iTunes

1 сезон

1

2 сезон

2 сезон

iTunes

1 сезон

RePack

30

Ultimate

ВАЖНО

ИГРА 18+

pack

RePack

MK11
pack

Забери бонус

RePack

jed

!!Акция!!

Alien_Rage

RePack

fifa19

RePack

Assassins Creed: Odyssey

RePack

NEED FOR SPEED™ PAYBACK

4 сезон

9 сезон

Бесстыжие 9 сезон

Все сериалы

все сериалы на PB.wtf

RePack

FAR CRY 5
  

Мистер Робот / Mr. Robot / Сезон 2 / Серии 1-12 из 12 (Сэм Эсмейл) [2016 , Драма, криминал, BDRip] DVO [Кубик в Кубе] pb.wtf

Мистер Робот через торрент pb.wtf

Размер: 11.76 GB | Добавлен: 2 года 11 мес. назад | Торрент скачан:128 раз
Скачать  

15-12-2017 10:04 Мистер Робот Скачать торрент  

Мистер Робот / Mr. RobotИнформация о фильме:

✦ Название: Мистер Робот
✦ Оригинальное название: Mr. Robot
✦ Год выпуска: 2016 (2 сезон)
✦ Страна: США / Universal Cable Productions
✦ Жанр: Драма, криминал
✦ Продолжительность: ~ 00:49:00 серия
✦ Перевод: Профессиональный двухголосый - Кубик в Кубе
✦ Субтитры: Русские (форсированные), Английские (форсированные, полные, SDH)
✦ Примечание: Без рекламы!

✦ Режиссер: Сэм Эсмейл

rating

В ролях:

Рами Малек , Кристиан Слэйтер, Карли Чаикин, Портия Даблдэй, Мартин Вальстрём, Стефани Корнелиуссен, Майкл Кристофер, Грэйс Гаммер, Б.Д. Вонг, Сунита Мани и др.

Описание:

История молодого программиста Эллиота, страдающего социофобией и решившего, что единственный приемлемый для него способ взаимодействия с людьми — это профессия хакера. Таким образом, он быстро оказывается в том самом месте, где пересекаются интересы его работодателя — фирмы, занимающейся кибербезопасностью, — и подпольных организаций, которые пытаются его завербовать с целью обрушения самых могучих американских корпораций.

Информация о файле:

✦ Качество: BDRip
✦ Формат: AVI
✦ Видео кодек: XviD
✦ Аудио кодек: AC3

✦ Видео: ~ 1900 kbps, 704x400 (16:9), 23.976 fps
✦ Аудио#1: RUS: AC3, 48 KHz, 6 ch, 448 kbps
✦ Аудио#2: ENG: AC3, 48 KHz, 6 ch, 448 kbps


скриншот   скриншот   скриншот   скриншот   скриншот   скриншот  

Общее
Полное имя : D:\Mister.Robot.S02.2016.RUS.BDRip.XviD.AC3.-HQ-ViDEO\Mister.Robot.S02.E01.E02.2016.RUS.BDRip.XviD.AC3.-HQ-ViDEO.avi
Формат : AVI
Формат/Информация : Audio Video Interleave
Размер файла : 1,45 Гбайт
Продолжительность : 1 ч. 22 м.
Общий поток : 2527 Кбит/сек
Название фильма : Mr. Robot / eps2.0_unm4sk-pt1.tc / eps2.0_unm4sk-pt2.tc
Режиссёр : HRIME
Программа кодирования : VirtualDubMod 1.5.10.2 (build 2542/release)
Формат оригинала/Имя : TV Series
Авторское право : HQ-ViDEO
Примечание : 15.11.2017

Видео
Идентификатор : 0
Формат : MPEG-4 Visual
Профиль формата : Advanced Simple@L5
Параметр BVOP формата : 1
Параметр QPel формата : Нет
Параметр GMC формата : Без точки перехода
Параметр матрицы формата : Выборочная
Идентификатор кодека : XVID
Идентификатор кодека/Подсказка : XviD
Продолжительность : 1 ч. 22 м.
Битрейт : 2069 Кбит/сек
Ширина : 704 пикселя
Высота : 400 пикселей
Соотношение сторон : 16:9
Частота кадров : 23,976 (24000/1001) кадра/сек
Цветовое пространство : YUV
Субдискретизация насыщенности : 4:2:0
Битовая глубина : 8 бит
Тип развёртки : Прогрессивная
Метод сжатия : С потерями
Бит/(Пиксели*Кадры) : 0.306
Размер потока : 1,19 Гбайт (82%)
Библиотека кодирования : XviD 67

Аудио
Идентификатор : 1
Формат : AC-3
Формат/Информация : Audio Coding 3
Расширение режима : CM (complete main)
Параметр Endianness формата : Big
Идентификатор кодека : 2000
Продолжительность : 1 ч. 22 м.
Вид битрейта : Постоянный
Битрейт : 448 Кбит/сек
Каналы : 6 каналов
Расположение каналов : Front: L C R, Side: L R, LFE
Частота : 48,0 КГц
Частота кадров : 31,250 кадров/сек (1536 spf)
Метод сжатия : С потерями
Размер потока : 264 Мбайт (18%)
Выравнивание : Разделение по промежуткам
Продолжительность промежутка : 42 мс. (1,00 видеокадр)
Время предзагрузки промежутка : 500 мс.

pb.wtf



Скачать Мистер Робот через торрент http://s019.radikal.ru/i611/1711/0d/bf9a4bc8a263.jpg Скачать фильм Мистер Робот через торрент бесплантно в хорошем качестве Описание: История молодого программиста Эллиота, страдающего социофобией и решившего, что единственный приемлемый для него способ ... 10 10 7
Торрент: Зарегистрирован [2017-12-15 10:04] · скачан: 128 раз
Статус: √ проверено
Размер: 11.76 GB
Как cкачать? Как скачать Мистер Робот через торрент | qTorrent

% Раздел Тема Автор DL S | L
Зарубежные сериалы [ 11.22 GB ] Мистер Робот / Mr. Robot / Сезон: 2 / Серии 1-12 из 12 [2016 WEB-DLRip-AVC MVO] [BaibaKo] GEKADOL Скачать
1 | 0
Зарубежные сериалы [ 13.6 GB ] Мистер Робот / Mr. Robot / Сезон: 2 / Серии 1-4 из 12 [2016 WEBRip 1080p] [MVO] killermax2013 Скачать
1 | 0
Зарубежные сериалы [ 1.12 GB ] Мистер Робот / Mr. Robot / Сезон: 2 / Серии 1-2 из 12 [2016 WEB-DLRip] [MVO] killermax2013 Скачать
1 | 0

28-11-2019 20:33  

Отключить всю рекламу на сайте

    Дорогой пользователь! Огромная просьба, поблагодарите релизера, оцените раздачу и оставьте свои комментарий, если Вы скачали Мистер Робот через торрент бесплатно! Внесите свою лепту в развитие PiratBit!
    Комментировать посты могут только пользователи прошедшие не сложную регистрацию
    Показать сообщения:    

    Мистер Робот через торрент
    Скачать бесплатно Мистер Робот
    Мистер Робот скачать торрент
    Мистер Робот смотреть онлайн
    Cкачать фильм Мистер Робот бесплатно
    Мистер Робот скачать торрент в хорошем качестве
    Мистер Робот смотреть онлайн бесплатно в хорошем качестве


    Вы не можете начинать темы
    Вы не можете отвечать на сообщения
    Вы не можете редактировать свои сообщения
    Вы не можете удалять свои сообщения
    Вы не можете голосовать в опросах
    Вы не можете прикреплять файлы к сообщениям
    Вы можете скачивать файлы