Ссылка на приватное зеркало нашего сайта всего за 1$. Внимание количество ограничено!!!

2 сезон

iTunes

1 сезон

1

2 сезон

2 сезон

iTunes

1 сезон

RePack

30

Новинка

ВАЖНО

ИГРА 18+

pack

RePack

MK11
pack

Забери бонус

RePack

jed

!!Акция!!

Alien_Rage

RePack

fifa19

RePack

Assassins Creed: Odyssey

RePack

NEED FOR SPEED™ PAYBACK

4 сезон

9 сезон

Бесстыжие 9 сезон

Все сериалы

все сериалы на PB.wtf

RePack

FAR CRY 5
  

Хэппи / Happy! / Сезон: 1 / Серии: 1-8 из 8 (Брайан Тейлор) [2017, Боевик, драма, криминал, фэнтези, WEB-DL 1080p] MVO [Jaskier] pb.wtf

Хэппи через торрент pb.wtf

Размер: 19.71 GB | Добавлен: 2 года 9 мес. назад | Торрент скачан:17 раз
Скачать  

15-12-2017 22:51 Хэппи Скачать торрент  

Хэппи / Happy!Год выпуска: 2017
Страна: США
Жанр: Боевик, драма, криминал, фэнтези
Продолжительность: 6 x ~ 00:45:00
Перевод: Профессиональный многоголосый | Jaskier (без цензуры)
Субтитры: отсутствуют

Режиссер: Брайан Тейлор

rating

В ролях:

Кристофер Мелони, Патрик Фишлер, Бобби Мойнахан, Ричи Костер, Забрина Гевара, Джозеф Д. Рейтман, Джо Перрино, Лили Мирожник, Гас Хэлпер, Кристофер Фицджералд

Описание:

Ник Сакс, вечно пьяный бывший полицейский, становится наёмным убийцей. Он плывёт по течению в мире случайных смертей, секса и предательства. Когда одно из его дел идёт наперекосяк, нетрезвая жизнь Сакса навсегда меняется с появлением крошечного, вечно положительного, воображаемого голубого крылатого коня.

Качество: WEB-DL 1080p
Формат: MKV
Видео кодек: H.264
Аудио кодек: AC3

Видео: X264, ~ 8900 kbps, 1920x1080 (16:9), 23.976 fps
Аудио#1: AC3, 48,0 КГц, 6 ch, 384 kbps - Rus
Аудио#2: AC3, 48,0 КГц, 6 ch, 384 kbps - Eng

скриншот   скриншот   скриншот  

Общее
Уникальный идентификатор : 245775299999878926872031182836128491462 (0xB8E699DA38CFFE4C8E92A92787E727C6)
Полное имя : D:\Happy. Season 1 (WEB-DL l 1080p l Jaskier)\Happy.S01E01.1080p.Jaskier.mkv
Формат : Matroska
Версия формата : Version 2
Размер файла : 3,02 Гбайт
Продолжительность : 43 м. 57 с.
Режим общего битрейта : Переменный
Общий поток : 9825 Кбит/сек
Дата кодирования : UTC 2017-12-10 20:22:10
Программа кодирования : mkvmerge v5.8.0 ('No Sleep / Pillow') built on Sep 2 2012 15:37:04
Библиотека кодирования : libebml v1.2.3 + libmatroska v1.3.0

Видео
Идентификатор : 1
Формат : AVC
Формат/Информация : Advanced Video Codec
Профиль формата : High@L4
Параметр CABAC формата : Да
Параметр ReFrames формата : 4 кадра
Идентификатор кодека : V_MPEG4/ISO/AVC
Продолжительность : 43 м. 57 с.
Вид битрейта : Переменный
Битрейт : 8861 Кбит/сек
Максимальный битрейт : 15,0 Мбит/сек
Ширина : 1920 пикселей
Высота : 1080 пикселей
Соотношение сторон : 16:9
Режим частоты кадров : Постоянный
Частота кадров : 23,976 (24000/1001) кадра/сек
Цветовое пространство : YUV
Субдискретизация насыщенности : 4:2:0
Битовая глубина : 8 бит
Тип развёртки : Прогрессивная
Бит/(Пиксели*Кадры) : 0.178
Размер потока : 2,72 Гбайт (90%)
Язык : English
Default : Да
Forced : Нет
Цветовой диапазон : Limited
Основные цвета : BT.709
Характеристики трансфера : BT.709
Коэффициенты матрицы : BT.709

Аудио #1
Идентификатор : 2
Формат : AC-3
Формат/Информация : Audio Coding 3
Расширение режима : CM (complete main)
Параметр Endianness формата : Big
Идентификатор кодека : A_AC3
Продолжительность : 43 м. 57 с.
Вид битрейта : Постоянный
Битрейт : 384 Кбит/сек
Каналы : 6 каналов
Расположение каналов : Front: L C R, Side: L R, LFE
Частота : 48,0 КГц
Частота кадров : 31,250 кадров/сек (1536 spf)
Метод сжатия : С потерями
Размер потока : 121 Мбайт (4%)
Язык : Russian
Default : Да
Forced : Нет

Аудио #2
Идентификатор : 3
Формат : AC-3
Формат/Информация : Audio Coding 3
Расширение режима : CM (complete main)
Параметр Endianness формата : Big
Идентификатор кодека : A_AC3
Продолжительность : 43 м. 57 с.
Вид битрейта : Постоянный
Битрейт : 384 Кбит/сек
Каналы : 6 каналов
Расположение каналов : Front: L C R, Side: L R, LFE
Частота : 48,0 КГц
Частота кадров : 31,250 кадров/сек (1536 spf)
Метод сжатия : С потерями
Размер потока : 121 Мбайт (4%)
Язык : English
Default : Нет
Forced : Нет

Когда раздача ведётся путём добавления новых серий, при каждом добавлении создётся новый торрент. Чтобы начать докачку новой серии, пользователям необходимо сделать следующее:
(1) остановить скачивание,
(2) удалить старый торрент у себя из клиента (старые серии удалять не надо),
(3) скачать новый торрент и запустить его у себя в клиенте вместо старого, при этом указать клиенту путь в старую папку, куда и должно происходить скачивание новых серий.
Ваш клиент при этом должен произвести хеширование (проверку) старой папки (если не производит сам - помогите ему сделать это), и будет докачивать только те серии, которых у вас ещё нет. Старые серии при этом не удаляются, а продолжают раздаваться!
Eсли вы уже удалили старые серии, то предотвратить повторную закачку старых серий можно, отжав галочку в соответсвующих местах при запуске нового торрента. По возможности, желательно не удалять старые серии как можно дольше, чтобы релизёр не столько продолжал раздавать старые серии, а смог сконцентрироваться на новы
pb.wtf



Скачать Хэппи через торрент http://i101.fastpic.ru/big/2017/1210/0e/a03f9c37488a32f8d4ab8197db0f6f0e.png Скачать фильм Хэппи через торрент бесплантно в хорошем качестве Описание: Ник Сакс, вечно пьяный бывший полицейский, становится наёмным убийцей. Он плывёт по течению в мире случайных смертей, секса и ... 10 10 5
Info! Золотая раздача, скачанное не засчитывается.
Торрент: Зарегистрирован [2018-02-05 11:32] · скачан: 17 раз
Статус: √ проверено
Размер: 19.71 GB
Как cкачать? Как скачать Хэппи через торрент | qTorrent

% Раздел Тема Автор DL S | L
Зарубежные сериалы [ 4.32 GB ] Хэппи / Happy! / Сезон: 1 / Серии: 1-8 из 8 [2017 HDRip] DUB [ТВ3] bober100 Скачать
1 | 0
Зарубежные сериалы [ 65.42 GB ] Хэппи! / Happy! / Сезон: 1 / Серии: 1-8 из 8 [2017 BDRemux 1080p] DVO [Кубик в Кубе] bober100 Скачать
1 | 0
Зарубежные сериалы [ 4.32 GB ] Хэппи / Happy! / Сезон 1 / Серия 1-8 из 8 [2017 WEB-DLRip] [DVO] killermax2013 Скачать
1 | 0
Зарубежные сериалы [ 14.78 GB ] Хэппи / Happy! / Сезон 1 / Серия 1-8 из 8 [2017 WEB-DL 1080p] killermax2013 Скачать
1 | 0
Зарубежные сериалы [ 7 GB ] Хэппи / Happy! / Сезон: 1 / Серии: 1-8 из 8 [2017 WEB-DLRip] MVO [LostFilm] bober100 Скачать
1 | 0
Зарубежные сериалы [ 4.3 GB ] Хэппи / Happy! / Сезон: 1 / Серии: 1-8 из 8 [2017 WEB-DLRip] MVO [NewStudio] bober100 Скачать
1 | 0
Зарубежные сериалы [ 3.42 GB ] Хэппи / Happy! / Сезон: 1 / Серии: 1-8 из 8 [2017 HDTVRip] MVO [ColdFilm] bober100 Скачать
1 | 0

28-11-2019 20:33  

Отключить всю рекламу на сайте

    Дорогой пользователь! Огромная просьба, поблагодарите релизера, оцените раздачу и оставьте свои комментарий, если Вы скачали Хэппи через торрент бесплатно! Внесите свою лепту в развитие PiratBit!
    Комментировать посты могут только пользователи прошедшие не сложную регистрацию
    Показать сообщения:    

    Хэппи через торрент
    Скачать бесплатно Хэппи
    Хэппи скачать торрент
    Хэппи смотреть онлайн
    Cкачать фильм Хэппи бесплатно
    Хэппи скачать торрент в хорошем качестве
    Хэппи смотреть онлайн бесплатно в хорошем качестве


    Вы не можете начинать темы
    Вы не можете отвечать на сообщения
    Вы не можете редактировать свои сообщения
    Вы не можете удалять свои сообщения
    Вы не можете голосовать в опросах
    Вы не можете прикреплять файлы к сообщениям
    Вы можете скачивать файлы