Ссылка на приватное зеркало нашего сайта всего за 1$. Внимание количество ограничено!!!

2 сезон

iTunes

1 сезон

1

2 сезон

2 сезон

iTunes

1 сезон

RePack

30

Ultimate

ВАЖНО

ИГРА 18+

pack

RePack

MK11
pack

Забери бонус

RePack

jed

!!Акция!!

Alien_Rage

RePack

fifa19

RePack

Assassins Creed: Odyssey

RePack

NEED FOR SPEED™ PAYBACK

4 сезон

9 сезон

Бесстыжие 9 сезон

Все сериалы

все сериалы на PB.wtf

RePack

FAR CRY 5
  

Хэппи / Happy! / Сезон 1 / Серии 1-8 из 8 (Брайан Тейлор) [2017, Боевик, драма, криминал, фэнтези, WEB-DLRip] MVO [Jaskier] pb.wtf

Хэппи через торрент pb.wtf

Размер: 4 GB | Добавлен: 2 года 9 мес. назад | Торрент скачан:19 раз
Скачать  

16-12-2017 06:09 Хэппи Скачать торрент  

Хэппи / Happy!Год выпуска: 2017
Страна: США
Жанр: Боевик, драма, криминал, фэнтези
Продолжительность: 6 x ~ 00:45:00
Перевод: Профессиональный многоголосый | Jaskier (без цензуры)
Субтитры: отсутствуют

Режиссер: Брайан Тейлор

rating

В ролях:

Кристофер Мелони, Патрик Фишлер, Бобби Мойнахан, Ричи Костер, Забрина Гевара, Джозеф Д. Рейтман, Джо Перрино, Лили Мирожник, Гас Хэлпер, Кристофер Фицджералд

Описание:

Ник Сакс, вечно пьяный бывший полицейский, становится наёмным убийцей. Он плывёт по течению в мире случайных смертей, секса и предательства. Когда одно из его дел идёт наперекосяк, нетрезвая жизнь Сакса навсегда меняется с появлением крошечного, вечно положительного, воображаемого голубого крылатого коня.

Качество: WEB-DLRip
Формат: AVI
Видео кодек: XviD
Аудио кодек: MP3

Видео: ~ 1400 kbps, 720x400, 23.976 fps
Аудио#1: MP3, 48,0 КГц, 2 ch, 128 kbps - RUS
Аудио#2: MP3, 48,0 КГц, 2 ch, 128 kbps - ENG


скриншот   скриншот   скриншот  

Общее
Полное имя : D:\Happy. Season 1 (WEB-DL l 400p l Jaskier)\Happy.S01E01.400p.Jaskier.avi
Формат : AVI
Формат/Информация : Audio Video Interleave
Размер файла : 525 Мбайт
Продолжительность : 43 м. 57 с.
Общий поток : 1670 Кбит/сек
Программа кодирования : VirtualDubMod 1.5.10.3 | www.virtualdub-fr.org || (build 2550/release)
Библиотека кодирования : VirtualDubMod build 2550/release

Видео
Идентификатор : 0
Формат : MPEG-4 Visual
Профиль формата : Advanced Simple@L5
Параметр BVOP формата : 2
Параметр QPel формата : Нет
Параметр GMC формата : Без точки перехода
Параметр матрицы формата : Выборочная
Идентификатор кодека : XVID
Идентификатор кодека/Подсказка : XviD
Продолжительность : 43 м. 57 с.
Битрейт : 1400 Кбит/сек
Ширина : 720 пикселей
Высота : 400 пикселей
Соотношение сторон : 16:9
Частота кадров : 23,976 (23976/1000) кадра/сек
Цветовое пространство : YUV
Субдискретизация насыщенности : 4:2:0
Битовая глубина : 8 бит
Тип развёртки : Прогрессивная
Метод сжатия : С потерями
Бит/(Пиксели*Кадры) : 0.203
Размер потока : 440 Мбайт (84%)
Библиотека кодирования : XviD 73

Аудио #1
Идентификатор : 1
Формат : MPEG Audio
Версия формата : Version 1
Профиль формата : Layer 3
Режим : Joint stereo
Расширение режима : MS Stereo
Идентификатор кодека : 55
Идентификатор кодека/Подсказка : MP3
Продолжительность : 43 м. 57 с.
Вид битрейта : Постоянный
Битрейт : 128 Кбит/сек
Каналы : 2 канала
Частота : 48,0 КГц
Метод сжатия : С потерями
Размер потока : 40,2 Мбайт (8%)
Выравнивание : Соединение по промежуткам
Продолжительность промежутка : 42 мс. (1,00 видеокадр)
Время предзагрузки промежутка : 504 мс.

Аудио #2
Идентификатор : 2
Формат : MPEG Audio
Версия формата : Version 1
Профиль формата : Layer 3
Режим : Joint stereo
Расширение режима : MS Stereo
Идентификатор кодека : 55
Идентификатор кодека/Подсказка : MP3
Продолжительность : 43 м. 57 с.
Вид битрейта : Постоянный
Битрейт : 128 Кбит/сек
Каналы : 2 канала
Частота : 48,0 КГц
Метод сжатия : С потерями
Размер потока : 40,2 Мбайт (8%)
Выравнивание : Соединение по промежуткам
Продолжительность промежутка : 42 мс. (1,00 видеокадр)
Время предзагрузки промежутка : 504 мс.

Когда раздача ведётся путём добавления новых серий, при каждом добавлении создётся новый торрент. Чтобы начать докачку новой серии, пользователям необходимо сделать следующее
(1) остановить скачивание,
(2) удалить старый торрент у себя из клиента (старые серии удалять не надо),
(3) скачать новый торрент и запустить его у себя в клиенте вместо старого, при этом указать клиенту путь в старую папку, куда и должно происходить скачивание новых серий.
Ваш клиент при этом должен произвести хеширование (проверку) старой папки (если не производит сам - помогите ему сделать это), и будет докачивать только те серии, которых у вас ещё нет. Старые серии при этом не удаляются, а продолжают раздаваться!
Eсли вы уже удалили старые серии, то предотвратить повторную закачку старых серий можно, отжав галочку в соответсвующих местах при запуске нового торрента. По возможности, желательно не удалять старые серии как можно дольше, чтобы релизёр не столько продолжал раздавать старые серии, а смог сконцентрироваться на новых.
pb.wtf



Скачать Хэппи через торрент http://i101.fastpic.ru/big/2017/1210/0e/a03f9c37488a32f8d4ab8197db0f6f0e.png Скачать фильм Хэппи через торрент бесплантно в хорошем качестве Описание: Ник Сакс, вечно пьяный бывший полицейский, становится наёмным убийцей. Он плывёт по течению в мире случайных смертей, секса и ... 10 10 5
Торрент: Зарегистрирован [2018-02-05 11:31] · скачан: 19 раз
Статус: √ проверено
Размер: 4 GB
Как cкачать? Как скачать Хэппи через торрент | qTorrent

% Раздел Тема Автор DL S | L
Зарубежные сериалы [ 4.32 GB ] Хэппи / Happy! / Сезон: 1 / Серии: 1-8 из 8 [2017 HDRip] DUB [ТВ3] bober100 Скачать
2 | 0
Зарубежные сериалы [ 65.42 GB ] Хэппи! / Happy! / Сезон: 1 / Серии: 1-8 из 8 [2017 BDRemux 1080p] DVO [Кубик в Кубе] bober100 Скачать
1 | 0
Зарубежные сериалы [ 4.32 GB ] Хэппи / Happy! / Сезон 1 / Серия 1-8 из 8 [2017 WEB-DLRip] [DVO] killermax2013 Скачать
2 | 0
Зарубежные сериалы [ 14.78 GB ] Хэппи / Happy! / Сезон 1 / Серия 1-8 из 8 [2017 WEB-DL 1080p] killermax2013 Скачать
2 | 0
Зарубежные сериалы [ 7 GB ] Хэппи / Happy! / Сезон: 1 / Серии: 1-8 из 8 [2017 WEB-DLRip] MVO [LostFilm] bober100 Скачать
1 | 0
Зарубежные сериалы [ 4.3 GB ] Хэппи / Happy! / Сезон: 1 / Серии: 1-8 из 8 [2017 WEB-DLRip] MVO [NewStudio] bober100 Скачать
1 | 0
Зарубежные сериалы [ 3.42 GB ] Хэппи / Happy! / Сезон: 1 / Серии: 1-8 из 8 [2017 HDTVRip] MVO [ColdFilm] bober100 Скачать
1 | 0


Последний раз редактировалось: bober100 (2018-02-05 11:31), всего редактировалось 3 раз(а)

28-11-2019 20:33  

Отключить всю рекламу на сайте

31-12-2017 19:20 Хэппи Скачать торрент  

Ощущение, что данный сериал снимала кучка наркоманов. И не из-за качества съёмки, а из-за сюжета.pb.wtf



    Дорогой пользователь! Огромная просьба, поблагодарите релизера, оцените раздачу и оставьте свои комментарий, если Вы скачали Хэппи через торрент бесплатно! Внесите свою лепту в развитие PiratBit!
    Комментировать посты могут только пользователи прошедшие не сложную регистрацию
    Показать сообщения:    

    Хэппи через торрент
    Скачать бесплатно Хэппи
    Хэппи скачать торрент
    Хэппи смотреть онлайн
    Cкачать фильм Хэппи бесплатно
    Хэппи скачать торрент в хорошем качестве
    Хэппи смотреть онлайн бесплатно в хорошем качестве


    Вы не можете начинать темы
    Вы не можете отвечать на сообщения
    Вы не можете редактировать свои сообщения
    Вы не можете удалять свои сообщения
    Вы не можете голосовать в опросах
    Вы не можете прикреплять файлы к сообщениям
    Вы можете скачивать файлы