Ссылка на приватное зеркало нашего сайта всего за 1$. Внимание количество ограничено!!!

2 сезон

iTunes

1 сезон

1

2 сезон

2 сезон

iTunes

1 сезон

RePack

30

Новинка

ВАЖНО

ИГРА 18+

pack

RePack

MK11
pack

Забери бонус

RePack

jed

!!Акция!!

Alien_Rage

RePack

fifa19

RePack

Assassins Creed: Odyssey

RePack

NEED FOR SPEED™ PAYBACK

4 сезон

9 сезон

Бесстыжие 9 сезон

Все сериалы

все сериалы на PB.wtf

RePack

FAR CRY 5
  

Жан-Клод Ван Джонсон / Jean-Claude Van Johnson / Сезон 1 / Серии 1-6 из 6 (Питер Атенсио) [2017, комедия, WEBRip 1080p] MVO [IdeaFilm] pb.wtf

Жан-Клод Ван Джонсон через торрент pb.wtf

Размер: 9.77 GB | Добавлен: 2 года 11 мес. назад | Торрент скачан:160 раз
Скачать  

16-12-2017 06:50 Жан-Клод Ван Джонсон Скачать торрент  

Жан-Клод Ван Джонсон / Jean-Claude Van JohnsonГод выпуска: 2017
Страна: США
Жанр: комедия
Продолжительность: ~ 00:30:00
Перевод: Любительский (многоголосый) - IdeaFilm
Субтитры: отсутствуют

Режиссер: Питер Атенсио

rating

В ролях:

Жан-Клод Ван Дамм, Кэт Фостер, Мойзес Ариас, Филисия Рашад, Бар Пали, Тим Пепер, Дерен Лерой, Кевин Майкл Уолш, Тейт Флетчер, Стэйси Дейнджер

Описание:

Создатели нового сериала «Жан-Клод Ван Джонсон» пытаются убедить зрителя в том, что на самом деле под всем известной фамилией Ван Дамм скрывается спецагент по фамилии Джонсон, который внешний вид актера использует исключительно для работы под прикрытием и успешного выполнения различных секретных операций. А свое очередное задание Джонсон выполняет, снимаясь в необычной версии «Приключений Гекельберри Финна».

Качество: WEBRip 1080p
Формат: MKV
Видео кодек: H.264
Аудио кодек: AC3

Видео: MPEG-4 AVC, ~ 7000 Кбит/с, 1920x800
Аудио#1: Русский (AC3, 6 ch, 384 Кбит/с)
Аудио#2: английский (AC3, 6 ch, 384 Кбит/с)
скриншот   скриншот   скриншот   скриншот  

Общее
Уникальный идентификатор : 217342740001317153219772163308996404642 (0xA382B069EE32F42995C9DCECC27E25A2)
Полное имя : D:\Jean-Claude.Van.Johnson.S01.WEBRip.1080p\Jean-Claude.Van.Johnson.S01E01.WEBRip.1080p-IdeaFilm.mkv
Формат : Matroska
Версия формата : Version 4 / Version 2
Размер файла : 1,63 Гбайт
Продолжительность : 30 м. 46 с.
Общий поток : 7564 Кбит/сек
Дата кодирования : UTC 2017-12-15 18:12:29
Программа кодирования : mkvmerge v12.0.0 ('Trust / Lust') 64bit
Библиотека кодирования : libebml v1.3.4 + libmatroska v1.4.5

Видео
Идентификатор : 1
Формат : AVC
Формат/Информация : Advanced Video Codec
Профиль формата : Main@L4.1
Параметр CABAC формата : Да
Параметр ReFrames формата : 4 кадра
Идентификатор кодека : V_MPEG4/ISO/AVC
Продолжительность : 30 м. 46 с.
Битрейт : 6802 Кбит/сек
Ширина : 1920 пикселей
Высота : 800 пикселей
Соотношение сторон : 2,40:1
Режим частоты кадров : Постоянный
Частота кадров : 23,976 (24000/1001) кадра/сек
Стандарт вещания : NTSC
Цветовое пространство : YUV
Субдискретизация насыщенности : 4:2:0
Битовая глубина : 8 бит
Тип развёртки : Прогрессивная
Бит/(Пиксели*Кадры) : 0.185
Размер потока : 1,46 Гбайт (90%)
Язык : English
Default : Да
Forced : Нет
Цветовой диапазон : Limited
Основные цвета : BT.709
Характеристики трансфера : BT.709
Коэффициенты матрицы : BT.709

Аудио #1
Идентификатор : 2
Формат : AC-3
Формат/Информация : Audio Coding 3
Расширение режима : CM (complete main)
Параметр Endianness формата : Big
Идентификатор кодека : A_AC3
Продолжительность : 30 м. 46 с.
Вид битрейта : Постоянный
Битрейт : 384 Кбит/сек
Каналы : 6 каналов
Расположение каналов : Front: L C R, Side: L R, LFE
Частота : 48,0 КГц
Частота кадров : 31,250 кадров/сек (1536 spf)
Метод сжатия : С потерями
Размер потока : 84,5 Мбайт (5%)
Заголовок : IdeaFilm
Язык : Russian
Default : Да
Forced : Нет

Аудио #2
Идентификатор : 3
Формат : AC-3
Формат/Информация : Audio Coding 3
Расширение режима : CM (complete main)
Параметр Endianness формата : Big
Идентификатор кодека : A_AC3
Продолжительность : 30 м. 6 с.
Вид битрейта : Постоянный
Битрейт : 384 Кбит/сек
Каналы : 6 каналов
Расположение каналов : Front: L C R, Side: L R, LFE
Частота : 48,0 КГц
Частота кадров : 31,250 кадров/сек (1536 spf)
Метод сжатия : С потерями
Задержка видео : 40 с. 0 мс.
Размер потока : 82,7 Мбайт (5%)
Язык : English
Default : Нет
Forced : Нет

pb.wtf



Скачать Жан-Клод Ван Джонсон через торрент http://s11.radikal.ru/i183/1712/25/76db5bada915.jpg Скачать фильм Жан-Клод Ван Джонсон через торрент бесплантно в хорошем качестве Описание: Создатели нового сериала «Жан-Клод Ван Джонсон» пытаются убедить зрителя в том, что на самом деле под всем известной фамилией Ван ... 9.8 10 9
Info! Золотая раздача, скачанное не засчитывается.
Торрент: Зарегистрирован [2017-12-16 06:50] · скачан: 160 раз
Статус: √ проверено
Размер: 9.77 GB
Как cкачать? Как скачать Жан-Клод Ван Джонсон через торрент | qTorrent

% Раздел Тема Автор DL S | L
Зарубежные сериалы [ 2.24 GB ] Жан-Клод Ван Джонсон / Jean-Claude Van Johnson / Сезон 1 / Серии 1-6 из 6 [2017 WEB-DLRip] MVO [LostFilm] bober100 Скачать
1 | 0
Зарубежные сериалы [ 5.29 GB ] Жан-Клод Ван Джонсон / Jean-Claude Van Johnson / Сезон: 1 / Серии 1-6 из 6 [2017 WEBRip 720p] [VO] killermax2013 Скачать
1 | 0
Зарубежные сериалы [ 2.06 GB ] Жан-Клод Ван Джонсон / Jean-Claude Van Johnson / Сезон: 1 / Серии 1-6 из 6 [2017 WEB-DLRip] [MVO] killermax2013 Скачать
1 | 0
Зарубежные сериалы [ 6.21 GB ] Жан-Клод Ван Джонсон / Jean-Claude Van Johnson / Сезон 1 / Серии 1-6 из 6 [2017 WEB-DL 1080p] MVO [NewStudio] bober100 Скачать
1 | 0
Зарубежные сериалы [ 6.33 GB ] Жан-Клод Ван Джонсон / Jean-Claude Van Johnson / Сезон: 1 / Серии 1-6 из 6 [2017 WEBRip 1080p] MVO [BaibaKo] GEKADOL Скачать
1 | 0
Зарубежные сериалы [ 3.03 GB ] Жан-Клод Ван Джонсон / Jean-Claude Van Johnson / Сезон 1 / Серии 1-6 из 6 [2017 WEBRip 720p] MVO [BaibaKo] bober100 Скачать
1 | 0
Зарубежные сериалы [ 2.01 GB ] Жан-Клод Ван Джонсон / Jean-Claude Van Johnson / Сезон: 1 / Серии 1-6 из 6 [2017 WEBRip] MVO [BaibaKo] GEKADOL Скачать
1 | 0

28-11-2019 20:33  

Отключить всю рекламу на сайте

    Дорогой пользователь! Огромная просьба, поблагодарите релизера, оцените раздачу и оставьте свои комментарий, если Вы скачали Жан-Клод Ван Джонсон через торрент бесплатно! Внесите свою лепту в развитие PiratBit!
    Комментировать посты могут только пользователи прошедшие не сложную регистрацию
    Показать сообщения:    

    Жан-Клод Ван Джонсон через торрент
    Скачать бесплатно Жан-Клод Ван Джонсон
    Жан-Клод Ван Джонсон скачать торрент
    Жан-Клод Ван Джонсон смотреть онлайн
    Cкачать фильм Жан-Клод Ван Джонсон бесплатно
    Жан-Клод Ван Джонсон скачать торрент в хорошем качестве
    Жан-Клод Ван Джонсон смотреть онлайн бесплатно в хорошем качестве


    Вы не можете начинать темы
    Вы не можете отвечать на сообщения
    Вы не можете редактировать свои сообщения
    Вы не можете удалять свои сообщения
    Вы не можете голосовать в опросах
    Вы не можете прикреплять файлы к сообщениям
    Вы можете скачивать файлы