Ссылка на приватное зеркало нашего сайта всего за 1$. Внимание количество ограничено!!!

2 сезон

iTunes

1 сезон

1

iTunes

iTunes

iTunes

1 сезон

RePack

30

ИГРА 18+

pack

ВАЖНО

!!Акция!!

Alien_RageХит недели

RePack

MK11
pack

Забери бонус

RePack

jed

!!Акция!!

Alien_Rage

RePack

fifa19

RePack

Assassins Creed: Odyssey

RePack

NEED FOR SPEED™ PAYBACK

4 сезон

9 сезон

Бесстыжие 9 сезон

Все сериалы

все сериалы на PB.wtf

RePack

FAR CRY 5
  

Палач / El verdugo (Луис Гарсиа Берланга) [1963, драма, комедия, BDRip 1080p by msltel] MVO, VO (профессиональный) pb.wtf

Палач через торрент pb.wtf

Размер: 10.98 GB | Добавлен: 2 года 10 мес. назад | Торрент скачан:7 раз
Скачать  

16-12-2017 07:47 Палач Скачать торрент  

Название: Палач
Оригинальное название: El verdugo
Год выпуска: 1963
Страна: Испания, Италия
Жанр: драма, комедия
Продолжительность: 01:32:02
Перевод: профессиональный многоголосый, профессиональный одноголосый

Режиссер: Луис Гарсиа Берланга
В ролях: Нино Манфреди, Эмма Пенелла, Хосе Исберт, Хосе Луис Лопес Васкес, Анхель Алварес, Гуидо Альберти, Хулия Каба Альба, Мария Луиза Понте, Мария Исберт, Эрасмо Паскуаль, Ксан Дас Болас, Хосе Орхас, Хосе Мария Прада, Феликс Фернандес, Антонио Феррандис

О фильме: Хосе-Луис, работающий могильщиком, случайно знакомится с миловидной Кармен, дочерью добродушного старичка Амедео, который, однако, уже 40 лет служит тюремным палачом. Из-за профессии отца Кармен не хватает мужского внимания, а у Хосе-Луиса те же проблемы с девушками — никто не хочет встречаться с могильщиком. Им вместе хорошо, у них рождается ребёнок, но когда Амедео уходит на пенсию, начинаются проблемы...



Качество: BDRip 1080p
Формат: MKV
Видео: MPEG-4 AVC, 16.5 Mбит/с, 1920x1036
Аудио 1: русский, AC3, 192 kbps, 2 ch, 48 kHz [профессиональный многоголосый, СВ Дубль по заказу телеканала Культура]
Аудио 2: русский, AC3, 192 kbps, 2 ch, 48 kHz [профессиональный одноголосый, Леонид Машинский]
Аудио 3: испанский, AC3, 192 kbps, 1 ch, 48 kHz [оригинал]
Субтитры: английские
Неименованные главы/чаптеры.
Общее
Уникальный идентификатор : 180992675829609968163229474372124199019 (0x8829EBE17E3C5701ADBD5F7D2E30C86B)
Полное имя : D:\Video\Палач.1963.BDRip.1080p by msltel.mkv
Формат : Matroska
Версия формата : Version 4 / Version 2
Размер файла : 11,0 Гбайт
Продолжительность : 1 ч. 32 м.
Общий поток : 17,1 Мбит/сек
Название фильма : Rip by msltel
Дата кодирования : UTC 2017-12-16 03:24:58
Программа кодирования : mkvmerge v8.2.0 ('World of Adventure') 64bit
Библиотека кодирования : libebml v1.3.1 + libmatroska v1.4.2

Видео
Идентификатор : 1
Формат : AVC
Формат/Информация : Advanced Video Codec
Профиль формата : High@L4.1
Настройки формата : CABAC / 4 Ref Frames
Параметр CABAC формата : Да
Параметр RefFrames формата : 4 кадра
Идентификатор кодека : V_MPEG4/ISO/AVC
Продолжительность : 1 ч. 32 м.
Битрейт : 16,5 Мбит/сек
Ширина : 1920 пикселей
Высота : 1036 пикселей
Соотношение сторон : 1,85:1
Режим частоты кадров : Постоянный
Частота кадров : 23,976 (24000/1001) кадра/сек
Цветовое пространство : YUV
Субдискретизация насыщенности : 4:2:0
Битовая глубина : 8 бит
Тип развёртки : Прогрессивная
Бит/(Пиксели*Кадры) : 0.346
Размер потока : 10,6 Гбайт (97%)
Библиотека кодирования : x264 core 146 r2538 121396c
Настройки программы : cabac=1 / ref=4 / deblock=1:-3:-2 / analyse=0x3:0x113 / me=umh / subme=11 / psy=1 / psy_rd=1.00:0.15 / mixed_ref=1 / me_range=32 / chroma_me=1 / trellis=2 / 8x8dct=1 / cqm=0 / deadzone=21,11 / fast_pskip=0 / chroma_qp_offset=-3 / threads=6 / lookahead_threads=1 / sliced_threads=0 / nr=0 / decimate=1 / interlaced=0 / bluray_compat=0 / constrained_intra=0 / bframes=8 / b_pyramid=2 / b_adapt=2 / b_bias=0 / direct=1 / weightb=1 / open_gop=0 / weightp=2 / keyint=230 / keyint_min=23 / scenecut=40 / intra_refresh=0 / rc_lookahead=40 / rc=crf / mbtree=0 / crf=19.5 / qcomp=0.60 / qpmin=0 / qpmax=69 / qpstep=4 / vbv_maxrate=62500 / vbv_bufsize=78125 / crf_max=0.0 / nal_hrd=none / filler=0 / ip_ratio=1.40 / pb_ratio=1.30 / aq=1:1.00
Язык : Spanish
Default : Да
Forced : Нет

Аудио #1
Идентификатор : 2
Формат : AC-3
Формат/Информация : Audio Coding 3
Идентификатор кодека : A_AC3
Продолжительность : 1 ч. 32 м.
Вид битрейта : Постоянный
Битрейт : 192 Кбит/сек
Каналы : 2 канала
Расположение каналов : Front: L R
Частота : 48,0 КГц
Частота кадров : 31,250 кадров/сек (1536 SPF)
Битовая глубина : 16 бит
Метод сжатия : С потерями
Размер потока : 126 Мбайт (1%)
Заголовок : MVO.СВ Дубль по заказу телеканала Культура
Язык : Russian
ServiceKind/String : Complete Main
Default : Да
Forced : Нет

Аудио #2
Идентификатор : 3
Формат : AC-3
Формат/Информация : Audio Coding 3
Идентификатор кодека : A_AC3
Продолжительность : 1 ч. 32 м.
Вид битрейта : Постоянный
Битрейт : 192 Кбит/сек
Каналы : 2 канала
Расположение каналов : Front: L R
Частота : 48,0 КГц
Частота кадров : 31,250 кадров/сек (1536 SPF)
Битовая глубина : 16 бит
Метод сжатия : С потерями
Размер потока : 126 Мбайт (1%)
Заголовок : Леонид Машинский
Язык : Russian
ServiceKind/String : Complete Main
Default : Нет
Forced : Нет

Аудио #3
Идентификатор : 4
Формат : AC-3
Формат/Информация : Audio Coding 3
Идентификатор кодека : A_AC3
Продолжительность : 1 ч. 32 м.
Вид битрейта : Постоянный
Битрейт : 192 Кбит/сек
Каналы : 1 канал
Расположение каналов : Front: C
Частота : 48,0 КГц
Частота кадров : 31,250 кадров/сек (1536 SPF)
Битовая глубина : 16 бит
Метод сжатия : С потерями
Размер потока : 126 Мбайт (1%)
Заголовок : original
Язык : Spanish
ServiceKind/String : Complete Main
Default : Нет
Forced : Нет

Текст
Идентификатор : 5
Формат : UTF-8
Идентификатор кодека : S_TEXT/UTF8
Идентификатор кодека/Информация : UTF-8 Plain Text
Продолжительность : 1 ч. 29 м.
Битрейт : 67 бит/сек
ElementCount : 1358
Размер потока : 44,0 Кбайт (0%)
Заголовок : английские
Язык : English
Default : Нет
Forced : Нет

Меню
00:00:00.000 : :Chapter 01
00:02:52.380 : :Chapter 02
00:09:12.551 : :Chapter 03
00:14:01.423 : :Chapter 04
00:18:28.272 : :Chapter 05
00:22:15.125 : :Chapter 06
00:25:40.830 : :Chapter 07
00:29:56.835 : :Chapter 08
00:33:19.539 : :Chapter 09
00:38:15.835 : :Chapter 10
00:42:33.425 : :Chapter 11
00:47:29.847 : :Chapter 12
00:52:30.021 : :Chapter 13
00:56:07.530 : :Chapter 14
01:03:05.782 : :Chapter 15
01:08:57.591 : :Chapter 16
01:14:55.032 : :Chapter 17
01:24:26.060 : :Chapter 18
01:28:16.249 : :Chapter 19
01:32:01.890 : :Chapter 20
pb.wtf



Скачать Палач через торрент http://s013.radikal.ru/i323/1712/e4/4078e9592b89.jpg Скачать фильм Палач через торрент бесплантно в хорошем качестве О фильме: Хосе-Луис, работающий могильщиком, случайно знакомится с миловидной Кармен, дочерью добродушного старичка Амедео, который, ... 10 10 1
Info! Золотая раздача, скачанное не засчитывается.
Торрент: Зарегистрирован [2017-12-16 07:47] · скачан: 7 раз
Статус: √ проверено
Размер: 10.98 GB
Как cкачать? Как скачать Палач через торрент | qTorrent

% Раздел Тема Автор DL S | L
Фильмы до 2000 г. [ 1.45 GB ] Палач / El verdugo [1963 г BDRip] MVO koenig Скачать
1 | 0
Фильмы [HD 720p, 1080p] (Хороший звук DUB, MVO) [ 3.9 GB ] Палач / El verdugo [1963 BDRip 720p by msltel] MVO VO msltel Скачать
1 | 0

28-11-2019 20:33  

Отключить всю рекламу на сайте

    Дорогой пользователь! Огромная просьба, поблагодарите релизера, оцените раздачу и оставьте свои комментарий, если Вы скачали Палач через торрент бесплатно! Внесите свою лепту в развитие PiratBit!
    Комментировать посты могут только пользователи прошедшие не сложную регистрацию
    Показать сообщения:    

    Палач через торрент
    Скачать бесплатно Палач
    Палач скачать торрент
    Палач смотреть онлайн
    Cкачать фильм Палач бесплатно
    Палач скачать торрент в хорошем качестве
    Палач смотреть онлайн бесплатно в хорошем качестве


    Вы не можете начинать темы
    Вы не можете отвечать на сообщения
    Вы не можете редактировать свои сообщения
    Вы не можете удалять свои сообщения
    Вы не можете голосовать в опросах
    Вы не можете прикреплять файлы к сообщениям
    Вы можете скачивать файлы