Ссылка на приватное зеркало нашего сайта всего за 1$. Внимание количество ограничено!!!

2 сезон

iTunes

1 сезон

1

iTunes

iTunes

iTunes

1 сезон

RePack

30

ИГРА 18+

pack

ВАЖНО

!!Акция!!

Alien_RageХит недели

RePack

MK11
pack

Забери бонус

RePack

jed

!!Акция!!

Alien_Rage

RePack

fifa19

RePack

Assassins Creed: Odyssey

RePack

NEED FOR SPEED™ PAYBACK

4 сезон

9 сезон

Бесстыжие 9 сезон

Все сериалы

все сериалы на PB.wtf

RePack

FAR CRY 5
  

Через беды и печали / Серия 1-4 из 4 / (Артём Марков) [2017 г., Мелодрама, SATRip] pb.wtf

Через беды и печали через торрент pb.wtf

Размер: 2.34 GB | Добавлен: 2 года 10 мес. назад | Торрент скачан:164 раза
Скачать  

16-12-2017 07:59 Через беды и печали Скачать торрент  

Через беды и печали / Серия 1-4 из 4 /
Год выпуска: 2017
Страна: Россия
Жанр: Мелодрама
Продолжительность: 4х~00:44:00
Субтитры: Нет

Режиссер: Артём Марков

В ролях: Екатерина Данилова, Михаил Химичев, Георгий Малявский, Тамара Миронова, Полина Нечитайло, Александр Абрамович

Описание: Наталья Тихонова отсидев в колонии за убийство жениха, которого она не совершала, возвращается в родной поселок. Но соседи и знакомые ничего не забыли и ничего не простили. Убийце никто не рад – работу ей не дают, все Наталью гонят и оскорбляют. Даже родной отец не верит в невиновность дочери. Тем более сейчас он второй раз женился, и мачеха всеми силами старается заставить Наталью навсегда уехать из поселка. Жизни здесь ей все равно не будет. Единственный человек, который верит девушке – ее давняя подруга Оля. Она знает кто настоящий убийца. Это влюбленная в жениха Натальи Зойка, убила его из ревности, а в преступлении обвинили Наталью. Наталья, однако, не готова мстить. Она решает уехать к тетке в город и начать новую жизнь. Вскоре Наталья понимает, что прошлое не отпустит ее, куда бы она не отправилась…

Качество: SATRip
Формат: AVI
Видео кодек: XviD
Аудио кодек: MP3
Видео: 704x288 (2.44:1), 25 fps, XviD build 50 ~1800 kbps
Аудио#1: 48 kHz, MPEG Layer 3, 2 ch, ~128.00 kbps avg
скриншот   скриншот   скриншот   скриншот  

General
Complete name : H:\релизы.торрентфайл\Cherez.bedy.i.pechali.SATRip.[www.riperam.org]\Cherez.bedy.i.pechali.04.SATRip.[www.riperam.org].avi
Format : AVI
Format/Info : Audio Video Interleave
File size : 565 MiB
Duration : 39mn 43s
Overall bit rate : 1 990 Kbps
Writing application : VirtualDubMod 1.5.10.3 | www.virtualdub-fr.org || (build 2550/release)
Writing library : VirtualDubMod build 2550/release

Video
ID : 0
Format : MPEG-4 Visual
Format profile : Advanced Simple@L5
Format settings, BVOP : 2
Format settings, QPel : No
Format settings, GMC : No warppoints
Format settings, Matrix : Default (H.263)
Codec ID : XVID
Codec ID/Hint : XviD
Duration : 39mn 43s
Bit rate : 1 852 Kbps
Width : 704 pixels
Height : 288 pixels
Display aspect ratio : 2.40:1
Frame rate : 25.000 fps
Color space : YUV
Chroma subsampling : 4:2:0
Bit depth : 8 bits
Scan type : Progressive
Compression mode : Lossy
Bits/(Pixel*Frame) : 0.365
Stream size : 526 MiB (93%)
Writing library : XviD 1.2.1 (UTC 2008-12-04)

Audio
ID : 1
Format : MPEG Audio
Format version : Version 1
Format profile : Layer 3
Mode : Joint stereo
Mode extension : MS Stereo
Codec ID : 55
Codec ID/Hint : MP3
Duration : 39mn 43s
Bit rate mode : Constant
Bit rate : 128 Kbps
Channel(s) : 2 channels
Sampling rate : 48.0 KHz
Compression mode : Lossy
Stream size : 36.4 MiB (6%)
Alignment : Aligned on interleaves
Interleave, duration : 40 ms (1.00 video frame)
Interleave, preload duration : 504 ms
Writing library : LAME3.99r
Encoding settings : -m j -V 4 -q 9 -lowpass 17 -b 128

pb.wtf



Скачать Через беды и печали через торрент http://pic1.kartinco.top/images/11/z5ix8.jpg Скачать фильм Через беды и печали через торрент бесплантно в хорошем качестве Описание: Наталья Тихонова отсидев в колонии за убийство жениха, которого она не совершала, возвращается в родной поселок. Но соседи и ... 10 10 5
Торрент: Зарегистрирован [2017-12-16 07:59] · скачан: 164 раз
Статус: √ проверено
Размер: 2.34 GB
Как cкачать? Как скачать Через беды и печали через торрент | qTorrent

28-11-2019 20:33  

Отключить всю рекламу на сайте

    Дорогой пользователь! Огромная просьба, поблагодарите релизера, оцените раздачу и оставьте свои комментарий, если Вы скачали Через беды и печали через торрент бесплатно! Внесите свою лепту в развитие PiratBit!
    Комментировать посты могут только пользователи прошедшие не сложную регистрацию
    Показать сообщения:    

    Через беды и печали через торрент
    Скачать бесплатно Через беды и печали
    Через беды и печали скачать торрент
    Через беды и печали смотреть онлайн
    Cкачать фильм Через беды и печали бесплатно
    Через беды и печали скачать торрент в хорошем качестве
    Через беды и печали смотреть онлайн бесплатно в хорошем качестве


    Вы не можете начинать темы
    Вы не можете отвечать на сообщения
    Вы не можете редактировать свои сообщения
    Вы не можете удалять свои сообщения
    Вы не можете голосовать в опросах
    Вы не можете прикреплять файлы к сообщениям
    Вы можете скачивать файлы