2 сезон

iTunes

1 сезон

1

iTunes

iTunes

iTunes

1 сезон

RePack

30

ИГРА 18+

pack

ВАЖНО

!!Акция!!

Alien_RageХит недели

RePack

MK11
pack

Забери бонус

RePack

jed

!!Акция!!

Alien_Rage

RePack

fifa19

RePack

Assassins Creed: Odyssey

RePack

NEED FOR SPEED™ PAYBACK

4 сезон

9 сезон

Бесстыжие 9 сезон

Все сериалы

все сериалы на PB.wtf

RePack

FAR CRY 5
  

Бар «Гадкий Койот» (Расширенная версия) / Coyote Ugly (Unrated) (Дэйвид МакНэлли) [2000, комедия, мелодрама, драма, музыка, BDRip 720p by msltel] DUB, AVO pb.wtf

Бар «Гадкий Койот» через торрент pb.wtf

Размер: 4.26 GB | Добавлен: 2 года 10 мес. назад | Торрент скачан:121 раз
Скачать  

16-12-2017 09:55 Бар «Гадкий Койот» Скачать торрент  

Название: Бар «Гадкий Койот»
Оригинальное название: Coyote Ugly
Год выпуска: 2000
Страна: США
Жанр: комедия, мелодрама, драма, музыка
Продолжительность: 01:47:30
Перевод: дублированный, авторский

Режиссер: Дэйвид МакНэлли
В ролях: Пайпер Перабо, Адам Гарсиа, Джон Гудмен, Мария Белло, Изабелла Мико, Тайра Бэнкс, Бриджет Мойнэхэн, Мелани Лински, Дел Пентекост, Майкл Уэстон

О фильме: Вайолет всю жизнь прожила на окраине и мечтала стать певицей. Но её никогда не покидал страх перед освещённой сценой и шумной толпой. Наконец, мечта привела её в Нью-Йорк, где Вайолет устроилась на работу официанткой в бар «Гадкий Койот», где правят бал только красивые и решительные. В обществе неотразимых красавиц, чьи манеры пугают ханжей и привлекают мужчин, Вайолет должна преодолеть природную застенчивость и услышать собственный голос...



Качество: BDRip 720p
Формат: MKV
Видео: MPEG-4 AVC, 4588 Кбит/с, 1280x534
Аудио 1: русский, AC3, 192 kbps, 2 ch, 48 kHz [дублированный]
Аудио 2: русский, AC3, 448 kbps, 6 ch, 48 kHz [авторский, Юрий Живов]
Аудио 3: английский, AC3, 448 kbps, 6 ch, 48 kHz [оригинал]
Субтитры 1: русские
Субтитры 2: английские
Неименованные главы/чаптеры.
Общее
Уникальный идентификатор : 220978563371140408855098353945056877898 (0xA63EEC5890FBF7B6BF60341A375B9D4A)
Полное имя : D:\Video\Бар Гадкий койот.2000.Unrated.BDRip.720p by msltel.mkv
Формат : Matroska
Версия формата : Version 4 / Version 2
Размер файла : 4,26 Гбайт
Продолжительность : 1 ч. 47 м.
Общий поток : 5679 Кбит/сек
Название фильма : Rip by msltel
Дата кодирования : UTC 2017-12-16 06:24:52
Программа кодирования : mkvmerge v8.2.0 ('World of Adventure') 64bit
Библиотека кодирования : libebml v1.3.1 + libmatroska v1.4.2

Видео
Идентификатор : 1
Формат : AVC
Формат/Информация : Advanced Video Codec
Профиль формата : High@L4.1
Настройки формата : CABAC / 9 Ref Frames
Параметр CABAC формата : Да
Параметр RefFrames формата : 9 кадров
Идентификатор кодека : V_MPEG4/ISO/AVC
Продолжительность : 1 ч. 47 м.
Битрейт : 4588 Кбит/сек
Ширина : 1280 пикселей
Высота : 534 пикселя
Соотношение сторон : 2,40:1
Режим частоты кадров : Постоянный
Частота кадров : 23,976 (24000/1001) кадра/сек
Цветовое пространство : YUV
Субдискретизация насыщенности : 4:2:0
Битовая глубина : 8 бит
Тип развёртки : Прогрессивная
Бит/(Пиксели*Кадры) : 0.280
Размер потока : 3,45 Гбайт (81%)
Библиотека кодирования : x264 core 146 r2538 121396c
Настройки программы : cabac=1 / ref=9 / deblock=1:-3:-2 / analyse=0x3:0x113 / me=umh / subme=11 / psy=1 / psy_rd=1.00:0.15 / mixed_ref=1 / me_range=32 / chroma_me=1 / trellis=2 / 8x8dct=1 / cqm=0 / deadzone=21,11 / fast_pskip=0 / chroma_qp_offset=-3 / threads=6 / lookahead_threads=1 / sliced_threads=0 / nr=0 / decimate=1 / interlaced=0 / bluray_compat=0 / constrained_intra=0 / bframes=6 / b_pyramid=2 / b_adapt=2 / b_bias=0 / direct=1 / weightb=1 / open_gop=0 / weightp=2 / keyint=230 / keyint_min=23 / scenecut=40 / intra_refresh=0 / rc_lookahead=40 / rc=crf / mbtree=0 / crf=18.4 / qcomp=0.60 / qpmin=0 / qpmax=69 / qpstep=4 / vbv_maxrate=62500 / vbv_bufsize=78125 / crf_max=0.0 / nal_hrd=none / filler=0 / ip_ratio=1.40 / pb_ratio=1.30 / aq=1:1.00
Язык : English
Default : Да
Forced : Нет

Аудио #1
Идентификатор : 2
Формат : AC-3
Формат/Информация : Audio Coding 3
Идентификатор кодека : A_AC3
Продолжительность : 1 ч. 47 м.
Вид битрейта : Постоянный
Битрейт : 192 Кбит/сек
Каналы : 2 канала
Расположение каналов : Front: L R
Частота : 48,0 КГц
Частота кадров : 31,250 кадров/сек (1536 SPF)
Битовая глубина : 16 бит
Метод сжатия : С потерями
Размер потока : 148 Мбайт (3%)
Заголовок : DUB
Язык : Russian
ServiceKind/String : Complete Main
Default : Да
Forced : Нет

Аудио #2
Идентификатор : 3
Формат : AC-3
Формат/Информация : Audio Coding 3
Идентификатор кодека : A_AC3
Продолжительность : 1 ч. 47 м.
Вид битрейта : Постоянный
Битрейт : 448 Кбит/сек
Каналы : 6 каналов
Расположение каналов : Front: L C R, Side: L R, LFE
Частота : 48,0 КГц
Частота кадров : 31,250 кадров/сек (1536 SPF)
Битовая глубина : 16 бит
Метод сжатия : С потерями
Размер потока : 344 Мбайт (8%)
Заголовок : Юрий Живов
Язык : Russian
ServiceKind/String : Complete Main
Default : Нет
Forced : Нет

Аудио #3
Идентификатор : 4
Формат : AC-3
Формат/Информация : Audio Coding 3
Идентификатор кодека : A_AC3
Продолжительность : 1 ч. 47 м.
Вид битрейта : Постоянный
Битрейт : 448 Кбит/сек
Каналы : 6 каналов
Расположение каналов : Front: L C R, Side: L R, LFE
Частота : 48,0 КГц
Частота кадров : 31,250 кадров/сек (1536 SPF)
Битовая глубина : 16 бит
Метод сжатия : С потерями
Размер потока : 344 Мбайт (8%)
Заголовок : original
Язык : English
ServiceKind/String : Complete Main
Default : Нет
Forced : Нет

Текст #1
Идентификатор : 5
Формат : UTF-8
Идентификатор кодека : S_TEXT/UTF8
Идентификатор кодека/Информация : UTF-8 Plain Text
Продолжительность : 1 ч. 41 м.
Битрейт : 89 бит/сек
ElementCount : 1227
Размер потока : 66,3 Кбайт (0%)
Заголовок : русские
Язык : Russian
Default : Нет
Forced : Нет

Текст #2
Идентификатор : 6
Формат : UTF-8
Идентификатор кодека : S_TEXT/UTF8
Идентификатор кодека/Информация : UTF-8 Plain Text
Продолжительность : 1 ч. 44 м.
Битрейт : 65 бит/сек
ElementCount : 1398
Размер потока : 50,2 Кбайт (0%)
Заголовок : английские
Язык : English
Default : Нет
Forced : Нет

Меню
00:00:00.000 : :Chapter 01
00:09:18.848 : :Chapter 02
00:18:09.922 : :Chapter 03
00:23:01.296 : :Chapter 04
00:33:24.919 : :Chapter 05
00:37:08.184 : :Chapter 06
00:38:54.415 : :Chapter 07
00:42:53.487 : :Chapter 08
00:50:03.583 : :Chapter 09
00:56:15.830 : :Chapter 10
01:03:57.792 : :Chapter 11
01:07:06.981 : :Chapter 12
01:18:42.216 : :Chapter 13
01:20:50.887 : :Chapter 14
01:21:05.360 : :Chapter 15
01:23:14.698 : :Chapter 16
01:29:54.972 : :Chapter 17
01:35:01.362 : :Chapter 18
01:38:27.693 : :Chapter 19
01:42:03.534 : :Chapter 20
01:47:30.235 : :Chapter 21
pb.wtf



Скачать Бар «Гадкий Койот» через торрент http://s019.radikal.ru/i606/1712/46/c39fe3620ec1.jpg Скачать фильм Бар «Гадкий Койот» через торрент бесплантно в хорошем качестве О фильме: Вайолет всю жизнь прожила на окраине и мечтала стать певицей. Но её никогда не покидал страх перед освещённой сценой и шумной ... 9.9 10 8
Info! Золотая раздача, скачанное не засчитывается.
Торрент: Зарегистрирован [2017-12-16 09:55] · скачан: 121 раз
Статус: √ проверено
Размер: 4.26 GB
Как cкачать? Как скачать Бар «Гадкий Койот» через торрент | qTorrent

% Раздел Тема Автор DL S | L
Фильмы [HD 720p, 1080p] (Хороший звук DUB, MVO) [ 11.52 GB ] Бар «Гадкий Койот» / Coyote Ugly [2000 музыка BDRip 1080p by msltel] DUB AVO msltel Скачать
1 | 0

28-11-2019 20:33  

Отключить всю рекламу на сайте

    Дорогой пользователь! Огромная просьба, поблагодарите релизера, оцените раздачу и оставьте свои комментарий, если Вы скачали Бар «Гадкий Койот» через торрент бесплатно! Внесите свою лепту в развитие PiratBit!
    Комментировать посты могут только пользователи прошедшие не сложную регистрацию
    Показать сообщения:    

    Бар «Гадкий Койот» через торрент
    Скачать бесплатно Бар «Гадкий Койот»
    Бар «Гадкий Койот» скачать торрент
    Бар «Гадкий Койот» смотреть онлайн
    Cкачать фильм Бар «Гадкий Койот» бесплатно
    Бар «Гадкий Койот» скачать торрент в хорошем качестве
    Бар «Гадкий Койот» смотреть онлайн бесплатно в хорошем качестве


    Вы не можете начинать темы
    Вы не можете отвечать на сообщения
    Вы не можете редактировать свои сообщения
    Вы не можете удалять свои сообщения
    Вы не можете голосовать в опросах
    Вы не можете прикреплять файлы к сообщениям
    Вы можете скачивать файлы