Всегда рабочее зеркало без VPN и Proxy просто перед .vidak.icu напиши любое слово или цифру, Пример http://znc5.vidak.icu

Лицензия

MVO

1 сезон

1

1 сезон

iTunes

1 сезон

13

1 сезон

Deluxe

pack

Рекомендуем

Repack

30

ВАЖНО

RePack

MK11

RePack

jed

RePack

fifa19

RePack

RDR2

RePack

NEED FOR SPEED™ PAYBACK

Кинопоиск HD

6 сезон

 Острые козырьки 6 сезон

Все сериалы

все сериалы на PB.wtf

RePack

FAR CRY 5
  
Magnet ссылка

Niva - Gravitation - 2013 /FLAC/ image +.cue/ lossless/ Hard Rock pb.wtf

Niva - Gravitation - 2013 через торрент pb.wtf

Размер: 416 MB | Добавлен: 4 года 7 мес. назад | Торрент скачан:9 раз
Смотреть онлайн Niva - Gravitation - 2013 | Скачать    Ребята, помогите собрать деньги на оплату серверов!!!

16-12-2017 16:44 Niva - Gravitation - 2013 Скачать торрент  


Niva - Gravitation


Год издания: 2013
Страна: Sweden
Жанр: Hard Rock
Продолжительность: 00:43:01
Лейбл издания: AVALON
Страна-выпуска диска: Japan
Номер по каталогу: MICP-11119
Формат: FLAC
Битрейт аудио: Lossless
Тип рипа: image +.cue
Наличие сканов в содержимом раздачи: да


01. Never Too Late (3:36)
02. Perfect Life (3:33)
03. My First And Only One (3:53)
04. Just Another Heartache (3:04)
05. In A Misty Light (4:27)
06. Always Somewhere (3:48)
07. Let It Shine (3:13)
08. Spanish Lullaby (3:27)
09. Do It Again (3:21)
10. Never Say Goodbye (3:38)
11. I Feel So Alone (3:44)
12. Love Online (bonus track) (3:17)

Код:

Exact Audio Copy V1.0 beta 3 from 29. August 2011

EAC extraction logfile from 15. November 2013, 23:09

Niva / Gravitation

Used drive  : SlimtypeDVD A  DS8A5SH   Adapter: 0  ID: 1

Read mode               : Secure
Utilize accurate stream : Yes
Defeat audio cache      : Yes
Make use of C2 pointers : No

Read offset correction                      : 6
Overread into Lead-In and Lead-Out          : No
Fill up missing offset samples with silence : Yes
Delete leading and trailing silent blocks   : No
Null samples used in CRC calculations       : Yes
Used interface                              : Native Win32 interface for Win NT & 2000

Used output format              : User Defined Encoder
Selected bitrate                : 320 kBit/s
Quality                         : High
Add ID3 tag                     : No
Command line compressor         : C:\Program Files (x86)\Exact Audio Copy\Flac\flac.exe
Additional command line options : -V -8 -T "Date=%year%" -T "Genre=%genre%" %source%

TOC of the extracted CD

     Track |   Start  |  Length  | Start sector | End sector
    ---------------------------------------------------------
        1  |  0:00.00 |  3:35.38 |         0    |    16162
        2  |  3:35.38 |  3:32.59 |     16163    |    32121
        3  |  7:08.22 |  3:53.34 |     32122    |    49630
        4  | 11:01.56 |  3:03.74 |     49631    |    63429
        5  | 14:05.55 |  4:26.54 |     63430    |    83433
        6  | 18:32.34 |  3:48.27 |     83434    |   100560
        7  | 22:20.61 |  3:13.04 |    100561    |   115039
        8  | 25:33.65 |  3:26.62 |    115040    |   130551
        9  | 29:00.52 |  3:21.07 |    130552    |   145633
       10  | 32:21.59 |  3:38.37 |    145634    |   162020
       11  | 36:00.21 |  3:43.39 |    162021    |   178784
       12  | 39:43.60 |  3:16.65 |    178785    |   193549

Range status and errors

Selected range

     Filename D:\My Music\Niva - 2013 Gravitation\Niva - Gravitation.wav

     Peak level 89.1 %
     Extraction speed 1.7 X
     Range quality 99.9 %
     Test CRC AD6AEF7D
     Copy CRC AD6AEF7D
     Copy OK

No errors occurred

AccurateRip summary

Track  1  not present in database
Track  2  not present in database
Track  3  not present in database
Track  4  not present in database
Track  5  not present in database
Track  6  not present in database
Track  7  not present in database
Track  8  not present in database
Track  9  not present in database
Track 10  not present in database
Track 11  not present in database
Track 12  not present in database

None of the tracks are present in the AccurateRip database

End of status report

Код:

REM GENRE "Melodic Hard Rock"
REM DATE 2013
REM DISCID 900A140C
REM COMMENT "ExactAudioCopy v1.0b3"
PERFORMER "Niva"
TITLE "Gravitation"
FILE "Niva - Gravitation.flac" WAVE
  TRACK 01 AUDIO
    TITLE "Never Too Late"
    PERFORMER "Niva"
    INDEX 01 00:00:00
  TRACK 02 AUDIO
    TITLE "Perfect Life"
    PERFORMER "Niva"
    INDEX 01 03:35:38
  TRACK 03 AUDIO
    TITLE "My First And Only One"
    PERFORMER "Niva"
    INDEX 01 07:08:22
  TRACK 04 AUDIO
    TITLE "Just Another Heartache"
    PERFORMER "Niva"
    INDEX 01 11:01:56
  TRACK 05 AUDIO
    TITLE "In A Misty Light"
    PERFORMER "Niva"
    INDEX 01 14:05:55
  TRACK 06 AUDIO
    TITLE "Always Somewhere"
    PERFORMER "Niva"
    INDEX 01 18:32:34
  TRACK 07 AUDIO
    TITLE "Let It Shine"
    PERFORMER "Niva"
    INDEX 01 22:20:61
  TRACK 08 AUDIO
    TITLE "Spanish Lullaby"
    PERFORMER "Niva"
    INDEX 01 25:33:65
  TRACK 09 AUDIO
    TITLE "Do It Again"
    PERFORMER "Niva"
    INDEX 01 29:00:52
  TRACK 10 AUDIO
    TITLE "Never Say Goodbye"
    PERFORMER "Niva"
    INDEX 01 32:21:59
  TRACK 11 AUDIO
    TITLE "I Feel So Alone"
    PERFORMER "Niva"
    INDEX 01 36:00:21
  TRACK 12 AUDIO
    TITLE "Love Online (bonus track)"
    PERFORMER "Niva"
    INDEX 01 39:43:60



pb.wtf



Скачать Niva - Gravitation - 2013 через торрент http://i102.fastpic.ru/big/2017/1216/ae/b618cc353cf2f528361ddc44f89a65ae.png Скачать, смотреть онлайн Niva - Gravitation - 2013 бесплантно в хорошем качестве Трэклист Never Too Late (3:36) Perfect Life (3:33) My First And Only One (3:53) Just Another Heartache (3:04) In A ... 5 10 1
Торрент: Зарегистрирован [2017-12-16 16:44] · скачан: 9 раз
Статус: √ проверено
Размер: 416 MB
Как cкачать? Как скачать Niva - Gravitation - 2013 через торрент | UTorrent

28-11-2019 20:33  

Отключить вcю реклaмy на сайте

    Дорогой пользователь! Огромная просьба, поблагодарите релизера, оцените раздачу и оставьте свои комментарий, если Вы скачали Niva - Gravitation - 2013 через торрент бесплатно!
    Комментировать посты могут только пользователи прошедшие не сложную регистрацию
    Показать сообщения:    

    Niva - Gravitation - 2013 через торрент
    Скачать бесплатно Niva - Gravitation - 2013
    Niva - Gravitation - 2013 скачать торрент
    Niva - Gravitation - 2013 смотреть онлайн
    Cкачать фильм Niva - Gravitation - 2013 бесплатно
    Niva - Gravitation - 2013 скачать торрент в хорошем качестве
    Niva - Gravitation - 2013 смотреть онлайн бесплатно в хорошем качестве


    Вы не можете начинать темы
    Вы не можете отвечать на сообщения
    Вы не можете редактировать свои сообщения
    Вы не можете удалять свои сообщения
    Вы не можете голосовать в опросах
    Вы не можете прикреплять файлы к сообщениям
    Вы можете скачивать файлы