Всегда рабочее зеркало без VPN и Proxy просто перед .vidak.icu напиши любое слово или цифру, Пример http://jk1i.vidak.icu

iTunes

2 сезон

1 сезон

1

1 сезон

iTunes

2 сезон

13

1 сезон

Deluxe

pack

Рекомендуем

Пиратка

30

ВАЖНО

RePack

MK11

RePack

jed

RePack

fifa19

RePack

RDR2

RePack

NEED FOR SPEED™ PAYBACK

Кинопоиск HD

6 сезон

 Острые козырьки 6 сезон

Все сериалы

все сериалы на PB.wtf

RePack

FAR CRY 5

Anonymous, нам критически не хватает 5601 руб. на оплату серверов и переферии за Апрель, помоги нам пожалуйста, вся надежда только на тебя. В благодарность мы отключим тебе всю рекламу на сайте!

×
  
Magnet ссылка

Юха / Juha (Аки Каурисмяки) [1999 г., драма, мелодрама, комедия, BDRip] AVO, VO pb.wtf

Юха через торрент pb.wtf

Размер: 1.09 GB | Добавлен: 4 года 5 мес. назад | Торрент скачан:15 раз
Смотреть онлайн Юха | Скачать    Ребята, помогите собрать деньги на оплату серверов!!!

16-12-2017 18:03 Юха Скачать торрент  

Юха / Juha
Год выпуска: 1999
Страна: Финляндия
Жанр: драма, мелодрама, комедия
Продолжительность: 01:17:32
Перевод: Авторский (Алексеев), любительский одноголосый

Режиссер: Аки Каурисмяки

rating

В ролях: Сакари Куосманен, Кати Оутинен, Андре Вильм, Маркку Пелтола, Элина Сало, Она Каму, Оути Мяенпяя, Туйре Туомисто, Татьяна Соловьёва, Эско Никкари, Яакко Таласкиви, Сафка Пекконен, Сами Куоппамяки, Юуссо Норлунд, Ансси Тиканмяки

Описание: На милом хуторке живут Юха и Мари — растят капусту и возят ее на рынок. После удачного дня Юха выпивает кружечку пива, а Мари съедает мороженое. Супруги катаются на мотоцикле с коляской и живут счастливой жизнью, пока случай не заносит в их мирную глушь коварного обольстителя Шемейку. Шемейка увозит Мари в город, обещая девушке сплошное беззаботное веселье вместо скучной работы. Но среди столичных огней наивную пейзанку ждет не вечный праздник, а публичный дом и тяжкие испытания. Исстрадавшийся Юха бросает все и едет вызволять свою заблудшую супругу.

Качество: BDRip (Juha.1999.1080p.Bluray.AVC.Remux.HDCLUB)
Формат: AVI
Видео: XviD, 1423 Кбит/с, 704x384, 23.976 кадр/с
Аудио #1: АС3, 6 ch, 384 Кбит/с | Авторский (Алексеев)
Аудио #2: АС3, 2 ch, 192 Кбит/с | Любительский одноголосый
Релиз от: Koenig
скриншот   скриншот   скриншот   скриншот   скриншот   скриншот  

Общее
Полное имя : Juha.1999.BDRip.avi
Формат : AVI
Формат/Информация : Audio Video Interleave
Размер файла : 1,09 Гбайт
Продолжительность : 1 ч. 17 м.
Общий поток : 2013 Кбит/сек
Программа кодирования : VirtualDubMod 1.5.10.2 (build 2540/release)
Библиотека кодирования : VirtualDubMod build 2540/release

Видео
Идентификатор : 0
Формат : MPEG-4 Visual
Профиль формата : Advanced Simple@L5
Параметр BVOP формата : 1
Параметр QPel формата : Нет
Параметр GMC формата : Без точки перехода
Параметр матрицы формата : Выборочная
Идентификатор кодека : XVID
Идентификатор кодека/Подсказка : XviD
Продолжительность : 1 ч. 17 м.
Битрейт : 1423 Кбит/сек
Ширина : 704 пикселя
Высота : 384 пикселя
Соотношение сторон : 1,85:1
Частота кадров : 23,976 (24000/1001) кадра/сек
Цветовое пространство : YUV
Субдискретизация насыщенности : 4:2:0
Битовая глубина : 8 бит
Тип развёртки : Прогрессивная
Метод сжатия : С потерями
Бит/(Пиксели*Кадры) : 0.220
Размер потока : 789 Мбайт (71%)
Библиотека кодирования : XviD 65

Аудио #1
Идентификатор : 1
Формат : AC-3
Формат/Информация : Audio Coding 3
Параметр Endianness формата : Big
Идентификатор кодека : 2000
Продолжительность : 1 ч. 17 м.
Вид битрейта : Постоянный
Битрейт : 384 Кбит/сек
Каналы : 6 каналов
Расположение каналов : Front: L C R, Side: L R, LFE
Частота : 48,0 КГц
Частота кадров : 31,250 кадров/сек (1536 spf)
Битовая глубина : 16 бит
Метод сжатия : С потерями
Размер потока : 213 Мбайт (19%)
Выравнивание : Разделение по промежуткам
Продолжительность промежутка : 42 мс. (1,00 видеокадр)
Время предзагрузки промежутка : 500 мс.
ServiceKind/String : Complete Main

Аудио #2
Идентификатор : 2
Формат : AC-3
Формат/Информация : Audio Coding 3
Параметр Endianness формата : Big
Идентификатор кодека : 2000
Продолжительность : 1 ч. 17 м.
Вид битрейта : Постоянный
Битрейт : 192 Кбит/сек
Каналы : 2 канала
Расположение каналов : Front: L R
Частота : 48,0 КГц
Частота кадров : 31,250 кадров/сек (1536 spf)
Битовая глубина : 16 бит
Метод сжатия : С потерями
Размер потока : 106 Мбайт (10%)
Выравнивание : Разделение по промежуткам
Продолжительность промежутка : 42 мс. (1,00 видеокадр)
Время предзагрузки промежутка : 500 мс.
ServiceKind/String : Complete Main

pb.wtf



Скачать Юха через торрент https://pic1.kartinco.top/images/11/c7ypw.jpg Скачать, смотреть онлайн Юха бесплантно в хорошем качестве Описание: На милом хуторке живут Юха и Мари — растят капусту и возят ее на рынок. После удачного дня Юха выпивает кружечку пива, а Мари ... 9 10 1
Торрент: Зарегистрирован [2017-12-16 18:03] · скачан: 15 раз
Статус: √ проверено
Размер: 1.09 GB
Как cкачать? Как скачать Юха через торрент | UTorrent

% Раздел Тема Автор DL S | L
Фильмы с авторской озвучкой [ 12.14 GB ] Юха / Juha [1999 BDRip 1080p by msltel] AVO VO msltel Скачать
1 | 0
Фильмы с авторской озвучкой [ 4.58 GB ] Юха / Juha [1999 BDRip 720p by msltel] AVO VO msltel Скачать
1 | 0

28-11-2019 20:33  

Отключить всю рекламу на сайте

    Дорогой пользователь! Огромная просьба, поблагодарите релизера, оцените раздачу и оставьте свои комментарий, если Вы скачали Юха через торрент бесплатно!
    Комментировать посты могут только пользователи прошедшие не сложную регистрацию
    Показать сообщения:    

    Юха через торрент
    Скачать бесплатно Юха
    Юха скачать торрент
    Юха смотреть онлайн
    Cкачать фильм Юха бесплатно
    Юха скачать торрент в хорошем качестве
    Юха смотреть онлайн бесплатно в хорошем качестве


    Вы не можете начинать темы
    Вы не можете отвечать на сообщения
    Вы не можете редактировать свои сообщения
    Вы не можете удалять свои сообщения
    Вы не можете голосовать в опросах
    Вы не можете прикреплять файлы к сообщениям
    Вы можете скачивать файлы