Ссылка на приватное зеркало нашего сайта всего за 1$. Внимание количество ограничено!!!

2 сезон

iTunes

1 сезон

1

2 сезон

2 сезон

iTunes

1 сезон

RePack

30

Ultimate

ВАЖНО

ИГРА 18+

pack

RePack

MK11
pack

Забери бонус

RePack

jed

!!Акция!!

Alien_Rage

RePack

fifa19

RePack

Assassins Creed: Odyssey

RePack

NEED FOR SPEED™ PAYBACK

4 сезон

9 сезон

Бесстыжие 9 сезон

Все сериалы

все сериалы на PB.wtf

RePack

FAR CRY 5
  

Жан-Клод Ван Джонсон / Jean-Claude Van Johnson / Сезон: 1 / Серии 1-6 из 6 (Питер Атенсио / Peter Atencio) [2017, США, комедия, WEBRip] MVO [BaibaKo] pb.wtf

Жан-Клод Ван Джонсон через торрент pb.wtf

Размер: 2.01 GB | Добавлен: 2 года 11 мес. назад | Торрент скачан:59 раз
Скачать  

17-12-2017 00:52 Жан-Клод Ван Джонсон Скачать торрент  

Жан-Клод Ван Джонсон / Jean-Claude Van Johnson


  • Год выпуска: 2017
  • Страна: США
  • Жанр: комедия
  • Продолжительность: ~ 00:29:00 (Серия)
  • Перевод: Профессиональный многоголосый [BaibaKo]
  • Режиссер: Питер Атенсио / Peter Atencio
  • В ролях:

    Жан-Клод Ван Дамм (играет самого себя), Кэт Фостер (Vanessa), Мойзес Ариас (Luis), Филисия Рашад (Jane), Бар Пали (Krisztina), Тим Пепер (Gunnar), Дерен Лерой (Victor), Кевин Майкл Уолш (Dri Ramen Waiter), Тейт Флетчер (Pap Finn), Filip Van Damme (Filip), Стэйси Дейнджер (PA), Йен Фишер (Andrei)


  • Создатели нового сериала «Жан-Клод Ван Джонсон» пытаются убедить зрителя в том, что на самом деле под всем известной фамилией Ван Дамм скрывается спецагент по фамилии Джонсон, который использует внешний вид актера исключительно для работы под прикрытием и успешного выполнения различных секретных операций. А свое очередное задание Джонсон выполняет, снимаясь в необычной версии «Приключений Гекельберри Финна».
  • Рейтинг:

    rating
  • Качество: WEBRip
  • Формат: :AVI
  • Видео кодек: XviD
  • Аудио кодек: MP3
  • Видео: 1441 Кбит/сек, 720*300 (2,40:1), в 23,976 (24000/1001) кадра/сек, MPEG-4 Visual XviD
  • Аудио №1: русский 192 Кбит/сек, 48,0 КГц, 2 канала, MPEG Audio (MP3) |[BaibaKo]|
  • Релиз от: GEKADOL

    Общее
    Полное имя : F:\Жан-Клод Ван Джонсон (Jean-Claude Van Johnson) XviD\Jean-Claude.Van.Johnson.s01e06.WEBRip.XviD.Rus.Eng.BaibaKo.tv.avi
    Формат : AVI
    Формат/Информация : Audio Video Interleave
    Размер файла : 373 Мбайт
    Продолжительность : 304 ч.
    Общий поток : 2857 бит/сек
    Программа кодирования : Lavf57.71.100

    Видео
    Идентификатор : 0
    Формат : MPEG-4 Visual
    Профиль формата : Advanced Simple@L5
    Настройки формата : BVOP2
    Параметр BVOP формата : 2
    Параметр QPel формата : Нет
    Параметр GMC формата : Без точки перехода
    Параметр матрицы формата : Default (H.263)
    Идентификатор кодека : FMP4
    Продолжительность : 31 м. 41 с.
    Битрейт : 1441 Кбит/сек
    Ширина : 720 пикселей
    Высота : 300 пикселей
    Соотношение сторон : 2,40:1
    Частота кадров : 23,976 (24000/1001) кадра/сек
    Цветовое пространство : YUV
    Субдискретизация насыщенности : 4:2:0
    Битовая глубина : 8 бит
    Тип развёртки : Прогрессивная
    Метод сжатия : С потерями
    Бит/(Пиксели*Кадры) : 0.278
    Размер потока : 327 Мбайт (88%)
    Библиотека кодирования : XviD 65

    Аудио
    Идентификатор : 1
    Формат : MPEG Audio
    Версия формата : Version 1
    Профиль формата : Layer 3
    Настройки формата : Joint stereo
    Идентификатор кодека : 55
    Идентификатор кодека/Подсказка : MP3
    Продолжительность : 304 ч.
    Продолжительность оригинала : 31 м. 41 с.
    Вид битрейта : Постоянный
    Битрейт : 192 Кбит/сек
    Каналы : 2 канала
    Частота : 48,0 КГц
    Метод сжатия : С потерями
    Размер потока : 43,5 Мбайт (12%)
    Выравнивание : Соединение по промежуткам
    Продолжительность промежутка : 24 мс. (0,58 видеокадр)
    Заголовок : jean.claude.van.johnson.s01e06 RUS
    Библиотека кодирования : LAME3.99.5





    Скриншоты:
    скриншот   скриншот   скриншот   скриншот   скриншот   скриншот   скриншот  
    скриншот  
    pb.wtf



  • Скачать Жан-Клод Ван Джонсон через торрент http://pic1.kartinco.top/images/11/gwluo.jpg Скачать фильм Жан-Клод Ван Джонсон через торрент бесплантно в хорошем качестве qw.png Создатели нового сериала «Жан-Клод Ван Джонсон» пытаются убедить зрителя в том, что на самом деле под всем известной фамилией Ван ... 10 10 3
    Info! Золотая раздача, скачанное не засчитывается.
    Торрент: Зарегистрирован [2017-12-17 00:52] · скачан: 59 раз
    Статус: √ проверено
    Размер: 2.01 GB
    Как cкачать? Как скачать Жан-Клод Ван Джонсон через торрент | qTorrent

    % Раздел Тема Автор DL S | L
    Зарубежные сериалы [ 2.24 GB ] Жан-Клод Ван Джонсон / Jean-Claude Van Johnson / Сезон 1 / Серии 1-6 из 6 [2017 WEB-DLRip] MVO [LostFilm] bober100 Скачать
    1 | 0
    Зарубежные сериалы [ 5.29 GB ] Жан-Клод Ван Джонсон / Jean-Claude Van Johnson / Сезон: 1 / Серии 1-6 из 6 [2017 WEBRip 720p] [VO] killermax2013 Скачать
    1 | 0
    Зарубежные сериалы [ 2.06 GB ] Жан-Клод Ван Джонсон / Jean-Claude Van Johnson / Сезон: 1 / Серии 1-6 из 6 [2017 WEB-DLRip] [MVO] killermax2013 Скачать
    1 | 0
    Зарубежные сериалы [ 6.21 GB ] Жан-Клод Ван Джонсон / Jean-Claude Van Johnson / Сезон 1 / Серии 1-6 из 6 [2017 WEB-DL 1080p] MVO [NewStudio] bober100 Скачать
    1 | 0
    Зарубежные сериалы [ 6.33 GB ] Жан-Клод Ван Джонсон / Jean-Claude Van Johnson / Сезон: 1 / Серии 1-6 из 6 [2017 WEBRip 1080p] MVO [BaibaKo] GEKADOL Скачать
    1 | 0
    Зарубежные сериалы [ 3.03 GB ] Жан-Клод Ван Джонсон / Jean-Claude Van Johnson / Сезон 1 / Серии 1-6 из 6 [2017 WEBRip 720p] MVO [BaibaKo] bober100 Скачать
    1 | 0
    Зарубежные сериалы [ 9.77 GB ] Жан-Клод Ван Джонсон / Jean-Claude Van Johnson / Сезон 1 / Серии 1-6 из 6 [2017 WEBRip 1080p] MVO [IdeaFilm] bober100 Скачать
    1 | 0

    28-11-2019 20:33  

    Отключить всю рекламу на сайте

    17-12-2017 01:06 Жан-Клод Ван Джонсон Скачать торрент  

    вау это свершилосьpb.wtf



      Дорогой пользователь! Огромная просьба, поблагодарите релизера, оцените раздачу и оставьте свои комментарий, если Вы скачали Жан-Клод Ван Джонсон через торрент бесплатно! Внесите свою лепту в развитие PiratBit!
      Комментировать посты могут только пользователи прошедшие не сложную регистрацию
      Показать сообщения:    

      Жан-Клод Ван Джонсон через торрент
      Скачать бесплатно Жан-Клод Ван Джонсон
      Жан-Клод Ван Джонсон скачать торрент
      Жан-Клод Ван Джонсон смотреть онлайн
      Cкачать фильм Жан-Клод Ван Джонсон бесплатно
      Жан-Клод Ван Джонсон скачать торрент в хорошем качестве
      Жан-Клод Ван Джонсон смотреть онлайн бесплатно в хорошем качестве


      Вы не можете начинать темы
      Вы не можете отвечать на сообщения
      Вы не можете редактировать свои сообщения
      Вы не можете удалять свои сообщения
      Вы не можете голосовать в опросах
      Вы не можете прикреплять файлы к сообщениям
      Вы можете скачивать файлы