Ссылка на приватное зеркало всего за 1$. Внимание количество ограничено!!!

OK

1+1

iTunes

мы

OK

1

WEB-DLRip

Джокер

Пифагор

Ведьмак / The Witcher сериал

Лицензия

ПШазам

ОК

Оно 2

iTunes

30
pack

Вам бонус

ВАЖНО

!!Акция!!

Alien_RageХит недели

RePack

Resident Evil 21

ИГРА 18+

pack

RePack

jed

!!Акция!!

Alien_Rage

RePack

fifa19

RePack

Assassins Creed: Odyssey

RePack

NEED FOR SPEED™ PAYBACK

4 сезон

9 сезон

Бесстыжие 9 сезон

Все сериалы

все сериалы на PB.wtf

RePack

FAR CRY 5
  

Фокс / The Fox (Клаас ван Эйкерен) [2017 г., Триллер, Детектив, WEB-DLRip, Любительский (многоголосый)("Синема УС")] pb.wtf

Фокс через торрент pb.wtf

Размер: 1.37 GB | Добавлен: 2 года 1 мес. назад | Торрент скачан:159 раз
Скачать  

17-12-2017 05:49 Фокс Скачать торрент  

Фокс / The Fox
Год выпуска: 2017
Страна: Нидерланды
Жанр: Триллер, Детектив
Продолжительность: 01:41:27
Перевод: Любительский (многоголосый)("Синема УС")
Субтитры: Нет

Режиссер: Клаас ван Эйкерен

rating

В ролях: Гарольд Брус, Эрик Кортон, Маартен Данненберг, Анита Донк, Настасия Файрстоун, Хью Гормли, Морган С. Джонс, Джошуа Рубин

Описание: Саймон Фокс, детектив, всеми силами старающийся добиться справедливости. Когда он обнаруживает, что организация, которая ставит под угрозу безопасность жителей, не была уничтожена много лет назад, а всё ещё вполне благополучно существует, он решает изменить с этим бороться. Но на его пути стоят сильные мира сего, которые пытаются ему помешать. Получится ли у Саймона восстановить мир и справедливость, или он потерпит поражение?

Доп. информация: присутствуют аудио и видео вставки рекламы

Качество: WEB-DLRip
Формат: AVI
Видео кодек: XviD
Аудио кодек: AC3
Видео: Xvid, 720x304, ~1536 Kbps
Аудио#1: AC3, 2 ch, 384 Kbps
скриншот   скриншот   скриншот   скриншот  

General
Complete name : /media/win/TORRENT/UPLOAD TORRENTS/The.Fox.2017.P.WEB-DLRip.14OOMB.avi
Format : AVI
Format/Info : Audio Video Interleave
File size : 1.37 GiB
Duration : 1 h 41 min
Overall bit rate : 1 929 kb/s
Writing application : VirtualDubMod 1.5.10.2 (build 2540/release)
Writing library : VirtualDubMod build 2540/release

Video
ID : 0
Format : MPEG-4 Visual
Format profile : Advanced Simple@L5
Format settings : BVOP2
Format settings, BVOP : 2
Format settings, QPel : No
Format settings, GMC : No warppoints
Format settings, Matrix : Default (MPEG)
Codec ID : XVID
Codec ID/Hint : XviD
Duration : 1 h 41 min
Bit rate : 1 536 kb/s
Width : 720 pixels
Height : 304 pixels
Display aspect ratio : 2.35:1
Frame rate : 23.976 (24000/1001) FPS
Color space : YUV
Chroma subsampling : 4:2:0
Bit depth : 8 bits
Scan type : Progressive
Compression mode : Lossy
Bits/(Pixel*Frame) : 0.293
Stream size : 1.09 GiB (80%)
Writing library : XviD 1.2.1 (UTC 2008-12-04)

Audio
ID : 1
Format : AC-3
Format/Info : Audio Coding 3
Codec ID : 2000
Duration : 1 h 41 min
Bit rate mode : Constant
Bit rate : 384 kb/s
Channel(s) : 2 channels
Channel positions : Front: L R
Sampling rate : 48.0 kHz
Frame rate : 31.250 FPS (1536 SPF)
Bit depth : 16 bits
Compression mode : Lossy
Stream size : 279 MiB (20%)
Alignment : Split accross interleaves
Interleave, duration : 42 ms (1.00 video frame)
Interleave, preload duration : 500 ms
Service kind : Complete Main

pb.wtf



Скачать Фокс через торрент http://i103.fastpic.ru/big/2017/1217/e1/73e2e06c13983621b93c7a02bef09fe1.jpg Скачать фильм Фокс через торрент бесплантно в хорошем качестве Описание: Саймон Фокс, детектив, всеми силами старающийся добиться справедливости. Когда он обнаруживает, что организация, которая ставит ... 8.2 10 5
Торрент: Зарегистрирован [2017-12-17 05:49] · скачан: 159 раз
Статус: T временная
Размер: 1.37 GB
Как cкачать? Как скачать Фокс через торрент | qTorrent

% Раздел Тема Автор DL S | L
Сцены из фильмов [ 272 MB ] Восхитительная Даймонд Фокс в роли Мерилин Монро / Diamond Foxxx [2011 All Sex Oral Sex Anal Sex Facial ATM MILF Big Tits Big Ass Blonde Lingerie Hardcore Pornstars DVDRip] Pir@tya2010 Скачать
1 | 0

28-11-2019 20:33  

Отключить всю рекламу на сайте

17-12-2017 05:56 Фокс Скачать торрент  

Топик был перенесен из форума Фильмы 2017 [DVDrip, WEB-DLRip, HDrip] (DUB, MVO) в форум Фильмы с рекламой


schultzpb.wtf



17-12-2017 06:49 Фокс Скачать торрент  

он решает изменить с этим боротьсяpb.wtf



18-12-2017 09:10 Фокс Скачать торрент  

Hanter953 писал(а):

он решает изменить с этим бороться

pb.wtf



    Дорогой пользователь! Огромная просьба, поблагодарите релизера, оцените раздачу и оставьте свои комментарий, если Вы скачали Фокс через торрент бесплатно! Внесите свою лепту в развитие PiratBit!
    Комментировать посты могут только пользователи прошедшие не сложную регистрацию
    Показать сообщения:    

    Фокс через торрент
    Скачать бесплатно Фокс
    Фокс скачать торрент
    Фокс смотреть онлайн
    Cкачать фильм Фокс бесплатно
    Фокс скачать торрент в хорошем качестве
    Фокс смотреть онлайн бесплатно в хорошем качестве


    Вы не можете начинать темы
    Вы не можете отвечать на сообщения
    Вы не можете редактировать свои сообщения
    Вы не можете удалять свои сообщения
    Вы не можете голосовать в опросах
    Вы не можете прикреплять файлы к сообщениям
    Вы можете скачивать файлы