Ссылка на приватное зеркало нашего сайта всего за 1$. Внимание количество ограничено!!!

2 сезон

iTunes

1 сезон

1

iTunes

iTunes

iTunes

1 сезон

RePack

30

ИГРА 18+

pack

ВАЖНО

!!Акция!!

Alien_RageХит недели

RePack

MK11
pack

Забери бонус

RePack

jed

!!Акция!!

Alien_Rage

RePack

fifa19

RePack

Assassins Creed: Odyssey

RePack

NEED FOR SPEED™ PAYBACK

4 сезон

9 сезон

Бесстыжие 9 сезон

Все сериалы

все сериалы на PB.wtf

RePack

FAR CRY 5
  

Алмазы Цирцеи / Сезон 1 / Серии 1-4 из 4 (Олег Штром) [2017, Детектив, экранизация, WEB-DL 1080p] pb.wtf

Алмазы Цирцеи через торрент pb.wtf

Размер: 6.7 GB | Добавлен: 2 года 10 мес. назад | Торрент скачан:89 раз
Скачать  

17-12-2017 08:14 Алмазы Цирцеи Скачать торрент  

Алмазы ЦирцеиГод выпуска: 2017
Страна: Россия
Жанр: Детектив, экранизация
Продолжительность: 4 х ~ 00:45:00
Субтитры: отсутствуют

Режиссер: Олег Штром



В ролях:

Елена Великанова, Дмитрий Бедерин, Любовь Германова, Валерий Сторожик, Максим Щёголев, Сергей Подольный, Евгений Данчевский, Александр Вдовин, Юлия Майборода, Максим Сапрыкин (II)

Описание:

Александра Корзухина получает заказ на реставрацию резного панно XVI века, приобретенного на аукционе в Бельгии. Но приступить к работе ей не удается: курьер, который привез это уникальное художественное произведение, был убит на пороге Сашиной мастерской, а панно исчезло. С этого момента Саша становится невольной участницей смертельного соревнования за обладание артефактом, который является не только произведением искусства, но и ключом к разгадке семейной тайны о несметных сокровищах.

Качество: WEB-DL 1080p
Формат: MKV
Видео кодек: H.264
Аудио кодек: AC3

Видео: MPEG-4 AVC, ~ 5116 Кбит/с, 1920x1080
Аудио: AC3, 2 ch, 192 Кбит/с
скриншот   скриншот   скриншот   скриншот  

Общее
Уникальный идентификатор : 189834131529561586589980762101089513089 (0x8ED0B94D71AEC7149BE55712F8EF2E81)
Полное имя : D:\Almazy.Circei.2017.WEB-DL.(1080p).Getty\Almazy.Circei.e01.2017.WEB-DL.(1080p).Getty.mkv
Формат : Matroska
Версия формата : Version 4 / Version 2
Размер файла : 1,68 Гбайт
Продолжительность : 45 м. 15 с.
Общий поток : 5310 Кбит/сек
Название фильма : Almazy.Circei.e01.2017.WEB-DL.(1080p).Getty
Дата кодирования : UTC 2017-12-16 23:00:58
Программа кодирования : mkvmerge v7.8.0 ('River Man') 32bit built on Mar 27 2015 16:18:02
Библиотека кодирования : libebml v1.3.1 + libmatroska v1.4.2

Видео
Идентификатор : 1
Формат : AVC
Формат/Информация : Advanced Video Codec
Профиль формата : High@L4
Параметр CABAC формата : Да
Параметр ReFrames формата : 4 кадра
Идентификатор кодека : V_MPEG4/ISO/AVC
Продолжительность : 45 м. 15 с.
Битрейт : 5116 Кбит/сек
Ширина : 1920 пикселей
Высота : 1080 пикселей
Соотношение сторон : 16:9
Режим частоты кадров : Постоянный
Частота кадров : 25,000 кадров/сек
Цветовое пространство : YUV
Субдискретизация насыщенности : 4:2:0
Битовая глубина : 8 бит
Тип развёртки : Прогрессивная
Бит/(Пиксели*Кадры) : 0.099
Размер потока : 1,62 Гбайт (96%)
Default : Да
Forced : Нет

Аудио
Идентификатор : 2
Формат : AC-3
Формат/Информация : Audio Coding 3
Расширение режима : CM (complete main)
Параметр Endianness формата : Big
Идентификатор кодека : A_AC3
Продолжительность : 45 м. 15 с.
Вид битрейта : Постоянный
Битрейт : 192 Кбит/сек
Каналы : 2 канала
Расположение каналов : Front: L R
Частота : 48,0 КГц
Частота кадров : 31,250 кадров/сек (1536 spf)
Метод сжатия : С потерями
Размер потока : 62,2 Мбайт (4%)
Default : Да
Forced : Нет

pb.wtf



Скачать Алмазы Цирцеи через торрент http://img12.lostpic.net/2017/12/17/8e99d469de3f83988d9cc0774a945a68.jpg Скачать фильм Алмазы Цирцеи через торрент бесплантно в хорошем качестве Описание: Александра Корзухина получает заказ на реставрацию резного панно XVI века, приобретенного на аукционе в Бельгии. Но приступить к ... 10 10 4
Торрент: Зарегистрирован [2017-12-17 08:14] · скачан: 89 раз
Статус: √ проверено
Размер: 6.7 GB
Как cкачать? Как скачать Алмазы Цирцеи через торрент | qTorrent

% Раздел Тема Автор DL S | L
Наши сериалы [ 2.27 GB ] Алмазы Цирцеи / Сезон: 1 / Серии: 1-4 из 4 [2017 WEB-DLRip-AVC] bober100 Скачать
1 | 0
Наши сериалы [ 4.11 GB ] Алмазы Цирцеи / Сезон: 1 / Серии: 1-4 из 4 [2017 WEB-DL 720p] bober100 Скачать
1 | 0
Наши сериалы [ 2.39 GB ] Алмазы Цирцеи / Сезон: 1 / Серии: 1-4 из 4 [2017 SATRip] bober100 Скачать
1 | 0

28-11-2019 20:33  

Отключить всю рекламу на сайте

    Дорогой пользователь! Огромная просьба, поблагодарите релизера, оцените раздачу и оставьте свои комментарий, если Вы скачали Алмазы Цирцеи через торрент бесплатно! Внесите свою лепту в развитие PiratBit!
    Комментировать посты могут только пользователи прошедшие не сложную регистрацию
    Показать сообщения:    

    Алмазы Цирцеи через торрент
    Скачать бесплатно Алмазы Цирцеи
    Алмазы Цирцеи скачать торрент
    Алмазы Цирцеи смотреть онлайн
    Cкачать фильм Алмазы Цирцеи бесплатно
    Алмазы Цирцеи скачать торрент в хорошем качестве
    Алмазы Цирцеи смотреть онлайн бесплатно в хорошем качестве


    Вы не можете начинать темы
    Вы не можете отвечать на сообщения
    Вы не можете редактировать свои сообщения
    Вы не можете удалять свои сообщения
    Вы не можете голосовать в опросах
    Вы не можете прикреплять файлы к сообщениям
    Вы можете скачивать файлы