Ссылка на приватное зеркало нашего сайта всего за 1$. Внимание количество ограничено!!!

2 сезон

iTunes

1 сезон

1

iTunes

iTunes

iTunes

1 сезон

RePack

30

ИГРА 18+

pack

ВАЖНО

!!Акция!!

Alien_RageХит недели

RePack

MK11
pack

Забери бонус

RePack

jed

!!Акция!!

Alien_Rage

RePack

fifa19

RePack

Assassins Creed: Odyssey

RePack

NEED FOR SPEED™ PAYBACK

4 сезон

9 сезон

Бесстыжие 9 сезон

Все сериалы

все сериалы на PB.wtf

RePack

FAR CRY 5
  

Через беды и печали / Серии 1-2 из 2 (Артём Марков) [2017, Мелодрама, HDTVRip 720p] pb.wtf

Через беды и печали через торрент pb.wtf

Размер: 4.44 GB | Добавлен: 2 года 10 мес. назад | Торрент скачан:54 раза
Скачать  

17-12-2017 09:40 Через беды и печали Скачать торрент  

Через беды и печали
Год выпуска: 2017
Страна: Россия
Жанр: Мелодрама
Продолжительность: 2 x ~ 01:30:00
Субтитры: отсутствуют

Режиссер: Артём Марков



В ролях:

Екатерина Данилова, Михаил Химичев, Георгий Малявский, Тамара Миронова, Полина Нечитайло, Александр Абрамович

Описание:

Наталья Тихонова отсидев в колонии за убийство жениха, которого она не совершала, возвращается в родной поселок. Но соседи и знакомые ничего не забыли и ничего не простили. Убийце никто не рад – работу ей не дают, все Наталью гонят и оскорбляют. Даже родной отец не верит в невиновность дочери. Тем более сейчас он второй раз женился, и мачеха всеми силами старается заставить Наталью навсегда уехать из поселка. Жизни здесь ей все равно не будет. Единственный человек, который верит девушке – ее давняя подруга Оля. Она знает кто настоящий убийца. Это влюбленная в жениха Натальи Зойка, убила его из ревности, а в преступлении обвинили Наталью. Наталья, однако, не готова мстить. Она решает уехать к тетке в город и начать новую жизнь. Вскоре Наталья понимает, что прошлое не отпустит ее, куда бы она не отправилась…

Качество: HDTVRip 720p
Формат: MKV
Видео кодек: H.264
Аудио кодек: AC3

Видео: 1280х520 (16:9), 25 fps, AVC MPEG-4 (x264), High@L4.1 ~ 3500 kbps , 0.21 bit/pixel
Аудио#1: 48 kHz, AC3, 2 ch, ~ 192 kbps avg
скриншот   скриншот   скриншот   скриншот   скриншот   скриншот  

Общее
Уникальный идентификатор : 189470444350364502801282527857109118135 (0x8E8AAE23E2BCD9E4B73B12513BC82CB7)
Полное имя : D:\Cherez.bedy.i.pechali.2017.HDTVRip.(720p).Nikolspup\Cherez.bedy.i.pechali.(01.seriya.iz.02).2017.HDTVRip.(720p).Nikolspup.mkv
Формат : Matroska
Версия формата : Version 4 / Version 2
Размер файла : 2,22 Гбайт
Продолжительность : 1 ч. 26 м.
Общий поток : 3694 Кбит/сек
Дата кодирования : UTC 2017-12-17 06:58:53
Программа кодирования : mkvmerge v7.8.0 ('River Man') 32bit built on Apr 3 2015 12:11:22
Библиотека кодирования : libebml v1.3.1 + libmatroska v1.4.2

Видео
Идентификатор : 1
Формат : AVC
Формат/Информация : Advanced Video Codec
Профиль формата : High@L4.1
Параметр CABAC формата : Да
Параметр ReFrames формата : 9 кадров
Идентификатор кодека : V_MPEG4/ISO/AVC
Продолжительность : 1 ч. 26 м.
Битрейт : 3500 Кбит/сек
Ширина : 1280 пикселей
Высота : 520 пикселей
Соотношение сторон : 2,462
Режим частоты кадров : Постоянный
Частота кадров : 25,000 кадров/сек
Цветовое пространство : YUV
Субдискретизация насыщенности : 4:2:0
Битовая глубина : 8 бит
Тип развёртки : Прогрессивная
Бит/(Пиксели*Кадры) : 0.210
Размер потока : 2,10 Гбайт (95%)
Библиотека кодирования : x264 core 146 r2538 121396c
Настройки программы : cabac=1 / ref=9 / deblock=1:-3:-3 / analyse=0x3:0x113 / me=umh / subme=11 / psy=1 / psy_rd=1.00:0.20 / mixed_ref=1 / me_range=32 / chroma_me=1 / trellis=2 / 8x8dct=1 / cqm=0 / deadzone=21,11 / fast_pskip=1 / chroma_qp_offset=-3 / threads=6 / lookahead_threads=1 / sliced_threads=0 / nr=0 / decimate=0 / interlaced=0 / bluray_compat=0 / constrained_intra=0 / bframes=11 / b_pyramid=2 / b_adapt=2 / b_bias=0 / direct=3 / weightb=1 / open_gop=0 / weightp=2 / keyint=250 / keyint_min=25 / scenecut=40 / intra_refresh=0 / rc_lookahead=60 / rc=2pass / mbtree=1 / bitrate=3500 / ratetol=1.0 / qcomp=0.60 / qpmin=0 / qpmax=69 / qpstep=4 / cplxblur=20.0 / qblur=0.5 / vbv_maxrate=14000 / vbv_bufsize=14000 / nal_hrd=none / filler=0 / ip_ratio=1.40 / aq=3:1.00
Default : Нет
Forced : Нет
Цветовой диапазон : Limited
Основные цвета : BT.709
Характеристики трансфера : BT.709
Коэффициенты матрицы : BT.709

Аудио
Идентификатор : 2
Формат : AC-3
Формат/Информация : Audio Coding 3
Расширение режима : CM (complete main)
Параметр Endianness формата : Big
Идентификатор кодека : A_AC3
Продолжительность : 1 ч. 26 м.
Вид битрейта : Постоянный
Битрейт : 192 Кбит/сек
Каналы : 2 канала
Расположение каналов : Front: L R
Частота : 48,0 КГц
Частота кадров : 31,250 кадров/сек (1536 spf)
Метод сжатия : С потерями
Размер потока : 118 Мбайт (5%)
Язык : Russian
Default : Да
Forced : Да

pb.wtf



Скачать Через беды и печали через торрент http://i99.fastpic.ru/big/2017/1216/4f/753aeba11e82eab51be69f467909254f.png Скачать фильм Через беды и печали через торрент бесплантно в хорошем качестве Описание: Наталья Тихонова отсидев в колонии за убийство жениха, которого она не совершала, возвращается в родной поселок. Но соседи и ... 10 10 3
Торрент: Зарегистрирован [2017-12-17 09:40] · скачан: 54 раз
Статус: √ проверено
Размер: 4.44 GB
Как cкачать? Как скачать Через беды и печали через торрент | qTorrent

28-11-2019 20:33  

Отключить всю рекламу на сайте

    Дорогой пользователь! Огромная просьба, поблагодарите релизера, оцените раздачу и оставьте свои комментарий, если Вы скачали Через беды и печали через торрент бесплатно! Внесите свою лепту в развитие PiratBit!
    Комментировать посты могут только пользователи прошедшие не сложную регистрацию
    Показать сообщения:    

    Через беды и печали через торрент
    Скачать бесплатно Через беды и печали
    Через беды и печали скачать торрент
    Через беды и печали смотреть онлайн
    Cкачать фильм Через беды и печали бесплатно
    Через беды и печали скачать торрент в хорошем качестве
    Через беды и печали смотреть онлайн бесплатно в хорошем качестве


    Вы не можете начинать темы
    Вы не можете отвечать на сообщения
    Вы не можете редактировать свои сообщения
    Вы не можете удалять свои сообщения
    Вы не можете голосовать в опросах
    Вы не можете прикреплять файлы к сообщениям
    Вы можете скачивать файлы