Всегда рабочее зеркало без VPN и Proxy просто перед .vidak.icu напиши любое слово или цифру, Пример http://5vus.vidak.icu

Лицензия

MVO

1 сезон

1

1 сезон

iTunes

1 сезон

13

1 сезон

Deluxe

pack

Рекомендуем

Repack

30

ВАЖНО

RePack

MK11

RePack

jed

RePack

fifa19

RePack

RDR2

RePack

NEED FOR SPEED™ PAYBACK

Кинопоиск HD

6 сезон

 Острые козырьки 6 сезон

Все сериалы

все сериалы на PB.wtf

RePack

FAR CRY 5
  
Magnet ссылка

Хитмэн: Агент 47 / Hitman: Agent 47 (Александр Бах) [2015, Боевик, триллер, криминал, UHD BDRemux 2160p] DUB [Лицензия] pb.wtf

Хитмэн: Агент 47 через торрент pb.wtf

Размер: 34.65 GB | Добавлен: 4 года 8 мес. назад | Торрент скачан:47 раз
Смотреть онлайн Хитмэн: Агент 47 | Скачать    Ребята, помогите собрать деньги на оплату серверов!!!

17-12-2017 09:53 Хитмэн: Агент 47 Скачать торрент  

Хитмэн: Агент 47 / Hitman: Agent 47Год выпуска: 2015
Страна: Германия, США,
Жанр: Боевик, триллер, криминал
Продолжительность: 01:36:16
Перевод: Дублированный | Лицензия
Субтитры: Русские (forced, full), английские

Режиссер: Александр Бах

rating

В ролях:

Руперт Френд, Ханна Уэр, Закари Куинто, Анджела Бейби, Томас Кречман, Дэн Баккедаль, Шарлин Бек, Михаэль Борнхюттер, Мелисса Бротон, Нильс Брункхорст, Михаэлла Каспар, Элвин Чан, Майкл Коркоран, Мануэль Депта, Эндрю Ди Бартоломео, Георг Эбиналь, Йорг Эллмер, Вайе Леон Го, Маттиас Гюнтер, Джесси Хергт, Киаран Хайндс, Джерри Хоффманн, Флориан Хотц

Описание:

Настали времена, когда генная инженерия позволяет вырастить любого человека с абсолютными показателями. Сила, скорость, меткость или слух: все это можно специально запланировать при создании нового человека. 47 — это две последние цифры на его татуировке в виде штрихкода на шее. Он — кульминация исследований в течение десятилетий и лучший из 46 предыдущих версий убийц. Его цель — мегакорпорация, которая планирует узнать тайну Агента 47 и создать армию его клонов-киллеров, превосходящих силу оригинала. Объединившись с женщиной, которая умеет хранить секреты, Агенту 47 предстоит выяснить шокирующую правду своего происхождения и приготовиться к эпической битве с заклятым врагом.

Качество: UHD BDRemux 2160p
Формат: MKV
Видео кодек: HEVC
Аудио кодек: AC3/DTS

Видео: MPEG-H HEVC HDR Video, 3840x2160, 45.0 Mbit/s, 23.976 fps
Аудио#1: 48 kHz, DTS, 5.1, 768 Kbps | Дублированный |RUS |
Аудио#2: 48 kHz, AC3, 5.1, 448 Kbps | Дублированный | RUS |
Аудио#3: 48 kHz, DTS-HD MA, 7.1, 5308 Kbps | Оригинал | ENG |


Релиз от:
скриншот  скриншот  скриншот  скриншот  скриншот  

General
Unique ID : 210715292679765950774437808735102376355 (0x9E864A086FB34EBB86564B124A6F19A3)
Complete name : G:VideoSSDHitman.Agent.47.2015.BDREMUX.2160p.4K.UltraHD.HEVC.HDR.ExKinoRay.mkv
Format : Matroska
Format version : Version 4 / Version 2
File size : 34.7 GiB
Duration : 1 h 36 min
Overall bit rate : 51.5 Mb/s
Movie name : Hitman: Agent 47 2015 from ExKinoRay
Encoded date : UTC 2017-12-17 09:25:04
Writing application : mkvmerge v18.0.0 ('Apricity') 64-bit
Writing library : libebml v1.3.5 + libmatroska v1.4.8

Video
ID : 1
Format : HEVC
Format/Info : High Efficiency Video Coding
Format profile : Main [email protected]@High
Codec ID : V_MPEGH/ISO/HEVC
Duration : 1 h 36 min
Bit rate : 45.0 Mb/s
Width : 3 840 pixels
Height : 2 160 pixels
Display aspect ratio : 16:9
Frame rate mode : Constant
Frame rate : 23.976 (24000/1001) FPS
Color space : YUV
Chroma subsampling : 4:2:0 (Type 2)
Bit depth : 10 bits
Bits/(Pixel*Frame) : 0.226
Stream size : 30.3 GiB (87%)
Writing library : ATEME Titan KFE 3.7.3 (4.7.3.1001)
Language : English
Default : Yes
Forced : No
Color range : Limited
Color primaries : BT.2020
Transfer characteristics : PQ
Matrix coefficients : BT.2020 non-constant
Mastering display color pri : R: x=0.680000 y=0.320000, G: x=0.265000 y=0.690000, B: x=0.150000 y=0.060000, White point: x=0.312700 y=0.329000
Mastering display luminance : min: 0.0000 cd/m2, max: 1100.0000 cd/m2

Audio #1
ID : 2
Format : DTS
Format/Info : Digital Theater Systems
Mode : 16
Format settings, Endianness : Big
Codec ID : A_DTS
Duration : 1 h 36 min
Bit rate mode : Constant
Bit rate : 768 kb/s
Channel(s) : 6 channels
Channel positions : Front: L C R, Side: L R, LFE
Sampling rate : 48.0 kHz
Frame rate : 93.750 FPS (512 SPF)
Bit depth : 24 bits
Compression mode : Lossy
Stream size : 529 MiB (1%)
Title : Dub [License]
Language : Russian
Default : Yes
Forced : No

Audio #2
ID : 3
Format : AC-3
Format/Info : Audio Coding 3
Format settings, Endianness : Big
Codec ID : A_AC3
Duration : 1 h 36 min
Bit rate mode : Constant
Bit rate : 448 kb/s
Channel(s) : 6 channels
Channel positions : Front: L C R, Side: L R, LFE
Sampling rate : 48.0 kHz
Frame rate : 31.250 FPS (1536 SPF)
Bit depth : 16 bits
Compression mode : Lossy
Stream size : 308 MiB (1%)
Title : Dub [License]
Language : Russian
Service kind : Complete Main
Default : No
Forced : No

Audio #3
ID : 4
Format : DTS
Format/Info : Digital Theater Systems
Format profile : MA / ES Matrix / Core
Mode : 16
Format settings, Endianness : Big
Codec ID : A_DTS
Duration : 1 h 36 min
Bit rate mode : Variable / Constant / Constant
Bit rate : 5 308 kb/s / 1 509 kb/s / 1 509 kb/s
Channel(s) : 8 channels / 7 channels / 6 channels
Channel positions : Front: L C R, Side: L R, Back: L R, LFE / Front: L C R, Side: L R, Back: C, LFE / Front: L C R, Side: L R, LFE
Sampling rate : 48.0 kHz
Frame rate : 93.750 FPS (512 SPF)
Bit depth : 24 bits
Compression mode : Lossless / Lossy / Lossy
Stream size : 3.57 GiB (10%)
Title : Original
Language : English
Default : No
Forced : No

Text #1
ID : 5
Format : UTF-8
Codec ID : S_TEXT/UTF8
Codec ID/Info : UTF-8 Plain Text
Duration : 1 h 34 min
Bit rate : 2 b/s
Count of elements : 39
Stream size : 1.83 KiB (0%)
Title : Forced
Language : Russian
Default : Yes
Forced : No

Text #2
ID : 6
Format : UTF-8
Codec ID : S_TEXT/UTF8
Codec ID/Info : UTF-8 Plain Text
Duration : 1 h 35 min
Bit rate : 57 b/s
Count of elements : 863
Stream size : 40.6 KiB (0%)
Title : Full
Language : Russian
Default : No
Forced : No

Text #3
ID : 7
Format : UTF-8
Codec ID : S_TEXT/UTF8
Codec ID/Info : UTF-8 Plain Text
Duration : 1 h 34 min
Bit rate : 35 b/s
Count of elements : 907
Stream size : 24.4 KiB (0%)
Title : Full
Language : English
Default : No
Forced : No

Text #4
ID : 8
Format : UTF-8
Codec ID : S_TEXT/UTF8
Codec ID/Info : UTF-8 Plain Text
Duration : 1 h 34 min
Bit rate : 42 b/s
Count of elements : 1110
Stream size : 29.4 KiB (0%)
Title : SDH
Language : English
Default : No
Forced : No

Menu
00:00:00.000 : :(01)00:00:00:000
00:07:11.347 : :(02)00:07:11:347
00:09:02.959 : :(03)00:09:02:959
00:13:11.582 : :(04)00:13:11:582
00:16:21.605 : :(05)00:16:21:605
00:19:22.786 : :(06)00:19:22:786
00:24:43.815 : :(07)00:24:43:815
00:27:19.179 : :(08)00:27:19:179
00:30:18.691 : :(09)00:30:18:691
00:33:03.815 : :(10)00:33:03:815
00:38:18.713 : :(11)00:38:18:713
00:43:11.755 : :(12)00:43:11:755
00:46:53.435 : :(13)00:46:53:435
00:50:39.870 : :(14)00:50:39:870
00:54:02.530 : :(15)00:54:02:530
00:59:50.587 : :(16)00:59:50:587
01:06:01.749 : :(17)01:06:01:749
01:09:06.142 : :(18)01:09:06:142
01:13:23.190 : :(19)01:13:23:190
01:16:55.319 : :(20)01:16:55:319
01:21:15.745 : :(21)01:21:15:745
01:25:20.824 : :(22)01:25:20:824
01:28:06.155 : :(23)01:28:06:155
01:31:17.847 : :(24)01:31:17:847

pb.wtf



Скачать Хитмэн: Агент 47 через торрент http://s019.radikal.ru/i634/1712/0f/1fab23713cac.jpg Скачать, смотреть онлайн Хитмэн: Агент 47 бесплантно в хорошем качестве Описание: Настали времена, когда генная инженерия позволяет вырастить любого человека с абсолютными показателями. Сила, скорость, меткость ... 9.4 10 5
Info! Золотая раздача, скачанное не засчитывается.
Торрент: Зарегистрирован [2017-12-17 09:53] · скачан: 47 раз
Статус: √ проверено
Размер: 34.65 GB
Как cкачать? Как скачать Хитмэн: Агент 47 через торрент | UTorrent

% Раздел Тема Автор DL S | L
Ultra HD (UHD: 2K, 4K, 8K) — видео сверхвысокой чёткости [ 39.04 GB ] Хитмэн: Агент 47 / Hitman: Agent 47 [2015 UHD Blu-ray 2160p] DUB sheker187 Скачать
1 | 0
Фильмы 2015 [DVDrip, WEB-DLRip, HDrip] [ 2.17 GB ] Хитмэн: Агент 47 / Hitman: Agent 47 [2015 Германия Индонезия BDRip-AVC от sokol_ok] DUB sokol_ok Скачать
2 | 0
Фильмы [HD 720p, 1080p] (Хороший звук DUB, MVO) [ 4.34 GB ] Хитмэн: Агент 47 / Hitman: Agent 47 [2015 BDRip 720p] DUB potroks Скачать
1 | 0
Фильмы (HD 720p, 1080p) (48-60 fps) [ 9.7 GB ] Хитмэн: Агент 47 / Hitman: Agent 47 [2015 Германия Сингапур BDRip 720p / 60 fps ] от R.G. HD-Films Ressident Скачать
1 | 0
Фильмы [HD 720p, 1080p] (Хороший звук DUB, MVO) [ 9.56 GB ] Хитмэн: Агент 47 / Hitman: Agent 47 [2015 BDRip 1080p - [ ] Ворон Скачать
1 | 0
Фильмы 2015 [DVDrip, WEB-DLRip, HDrip] [ 1.46 GB ] Хитмэн: Агент 47 / Hitman: Agent 47 [2015 Германия Индонезия BDRip-AVC от sokol_ok] DUB sokol_ok Скачать
2 | 0
Фильмы (Blu-ray, BD-Remux, HDDVD) [ 22.14 GB ] Хитмэн: Агент 47 / Hitman: Agent 47 [2015 BD Remux - [BD CEE] Ворон Скачать
1 | 0

28-11-2019 20:33  

Отключить вcю реклaмy на сайте

    Дорогой пользователь! Огромная просьба, поблагодарите релизера, оцените раздачу и оставьте свои комментарий, если Вы скачали Хитмэн: Агент 47 через торрент бесплатно!
    Комментировать посты могут только пользователи прошедшие не сложную регистрацию
    Показать сообщения:    

    Хитмэн: Агент 47 через торрент
    Скачать бесплатно Хитмэн: Агент 47
    Хитмэн: Агент 47 скачать торрент
    Хитмэн: Агент 47 смотреть онлайн
    Cкачать фильм Хитмэн: Агент 47 бесплатно
    Хитмэн: Агент 47 скачать торрент в хорошем качестве
    Хитмэн: Агент 47 смотреть онлайн бесплатно в хорошем качестве


    Вы не можете начинать темы
    Вы не можете отвечать на сообщения
    Вы не можете редактировать свои сообщения
    Вы не можете удалять свои сообщения
    Вы не можете голосовать в опросах
    Вы не можете прикреплять файлы к сообщениям
    Вы можете скачивать файлы