Ссылка на приватное зеркало нашего сайта всего за 1$. Внимание количество ограничено!!!

2 сезон

iTunes

1 сезон

1

iTunes

iTunes

iTunes

1 сезон

RePack

30

ИГРА 18+

pack

ВАЖНО

!!Акция!!

Alien_RageХит недели

RePack

MK11
pack

Забери бонус

RePack

jed

!!Акция!!

Alien_Rage

RePack

fifa19

RePack

Assassins Creed: Odyssey

RePack

NEED FOR SPEED™ PAYBACK

4 сезон

9 сезон

Бесстыжие 9 сезон

Все сериалы

все сериалы на PB.wtf

RePack

FAR CRY 5
  

Машкин дом / Серии 1-4 из 4 / (Екатерина Побединская) [2017 г., Мелодрама, SATRip] pb.wtf

Машкин дом через торрент pb.wtf

Размер: 1.96 GB | Добавлен: 2 года 10 мес. назад | Торрент скачан:110 раз
Скачать  

17-12-2017 10:58 Машкин дом Скачать торрент  

Машкин дом / Серии 1-4 из 4 /
Год выпуска: 2017
Страна: Россия
Жанр: Мелодрама
Продолжительность: 4 х ~ 00:36:00
Субтитры: нет

Режиссер: Екатерина Побединская

В ролях: Павел Крайнов, Ольга Лерман, Денис Матросов, Татьяна Яковенко, Михаил Хмуров, Евгения Осипова, Вячеслав Дробинков

Описание: Маша любит Юру и со дня на день ждёт от него предложения руки и сердца. Но вот в больницу, где она работает, привозят пострадавших в автомобильной аварии. Одним из них оказывается Юра, а другой – его жена Юля. Юра пытается что-то объяснить, но как можно оправдать ложь? Проведя сложную операцию, Маша отправляется залечивать сердечные раны в родной Левореченск. Она надеется выплакаться на плече у лучшей подруги. Но подруга скрывает какую-то тайну, и эта тайна явно имеет отношение к Маше…

Качество: SATRip
Формат: AVI
Видео кодек: XviD
Аудио кодек: AC3
Видео: XviD,720x400, 25.00 fps, 1800 kbps
Аудио#1: AC3,48000 Hz, 128 kbps, 2 Channel
скриншот   скриншот   скриншот   скриншот  

General
Complete name : H:\релизы.торрентфайл\Mashkin.dom.2017.SATRip.[www.riperam.org]\Mashkin.dom.01.2017.SATRip.[www.riperam.org].avi
Format : AVI
Format/Info : Audio Video Interleave
File size : 500 MiB
Duration : 36mn 5s
Overall bit rate : 1 938 Kbps
Writing application : VirtualDubMod 1.5.10.3 | www.virtualdub-fr.org || (build 2550/release)
Writing library : VirtualDubMod build 2550/release

Video
ID : 0
Format : MPEG-4 Visual
Format profile : Advanced Simple@L5
Format settings, BVOP : 2
Format settings, QPel : No
Format settings, GMC : No warppoints
Format settings, Matrix : Default (H.263)
Codec ID : XVID
Codec ID/Hint : XviD
Duration : 36mn 5s
Bit rate : 1 800 Kbps
Width : 720 pixels
Height : 400 pixels
Display aspect ratio : 16:9
Frame rate : 25.000 fps
Color space : YUV
Chroma subsampling : 4:2:0
Bit depth : 8 bits
Scan type : Progressive
Compression mode : Lossy
Bits/(Pixel*Frame) : 0.250
Stream size : 465 MiB (93%)
Writing library : XviD 1.2.1 (UTC 2008-12-04)

Audio
ID : 1
Format : AC-3
Format/Info : Audio Coding 3
Mode extension : CM (complete main)
Format settings, Endianness : Big
Codec ID : 2000
Duration : 36mn 5s
Bit rate mode : Constant
Bit rate : 128 Kbps
Channel(s) : 2 channels
Channel positions : Front: L R
Sampling rate : 48.0 KHz
Bit depth : 16 bits
Compression mode : Lossy
Stream size : 33.0 MiB (7%)
Alignment : Split accross interleaves
Interleave, duration : 40 ms (1.00 video frame)
Interleave, preload duration : 500 ms

pb.wtf



Скачать Машкин дом через торрент http://i103.fastpic.ru/big/2017/1217/8b/a4cef26f8310fae03ecb00af8734218b.jpg Скачать фильм Машкин дом через торрент бесплантно в хорошем качестве Описание: Маша любит Юру и со дня на день ждёт от него предложения руки и сердца. Но вот в больницу, где она работает, привозят ... 7 10 3
Торрент: Зарегистрирован [2017-12-17 11:01] · скачан: 110 раз
Статус: √ проверено
Размер: 1.96 GB
Как cкачать? Как скачать Машкин дом через торрент | qTorrent

% Раздел Тема Автор DL S | L
Наши сериалы [ 3.04 GB ] Машкин дом / Серии: 1-4 из 4 [2017 WEBRip 1080p] bober100 Скачать
1 | 0

28-11-2019 20:33  

Отключить всю рекламу на сайте

    Дорогой пользователь! Огромная просьба, поблагодарите релизера, оцените раздачу и оставьте свои комментарий, если Вы скачали Машкин дом через торрент бесплатно! Внесите свою лепту в развитие PiratBit!
    Комментировать посты могут только пользователи прошедшие не сложную регистрацию
    Показать сообщения:    

    Машкин дом через торрент
    Скачать бесплатно Машкин дом
    Машкин дом скачать торрент
    Машкин дом смотреть онлайн
    Cкачать фильм Машкин дом бесплатно
    Машкин дом скачать торрент в хорошем качестве
    Машкин дом смотреть онлайн бесплатно в хорошем качестве


    Вы не можете начинать темы
    Вы не можете отвечать на сообщения
    Вы не можете редактировать свои сообщения
    Вы не можете удалять свои сообщения
    Вы не можете голосовать в опросах
    Вы не можете прикреплять файлы к сообщениям
    Вы можете скачивать файлы