Ссылка на приватное зеркало нашего сайта всего за 1$. Внимание количество ограничено!!!

2 сезон

iTunes

1 сезон

1

iTunes

iTunes

iTunes

1 сезон

RePack

30

ИГРА 18+

pack

ВАЖНО

!!Акция!!

Alien_RageХит недели

RePack

MK11
pack

Забери бонус

RePack

jed

!!Акция!!

Alien_Rage

RePack

fifa19

RePack

Assassins Creed: Odyssey

RePack

NEED FOR SPEED™ PAYBACK

4 сезон

9 сезон

Бесстыжие 9 сезон

Все сериалы

все сериалы на PB.wtf

RePack

FAR CRY 5
  

Пианистка / La Pianiste (Михаэль Ханеке) [2001, драма, мелодрама, музыка, BDRip 720p by msltel] MVO pb.wtf

Пианистка через торрент pb.wtf

Размер: 6.46 GB | Добавлен: 2 года 10 мес. назад | Торрент скачан:52 раза
Скачать  

17-12-2017 12:23 Пианистка Скачать торрент  

Название: Пианистка
Оригинальное название: La Pianiste
Год выпуска: 2001
Страна: Австрия, Франция, Германия
Жанр: драма, мелодрама, музыка
Продолжительность: 02:11:03
Перевод: профессиональный многоголосый

Режиссер: Михаэль Ханеке
В ролях: Изабель Юппер, Анни Жирардо, Бенуа Мажимель, Сюзанна Лотар, Удо Замель, Анна Сигалевич, Корнелия Конгден, Томас Вайнхаппель, Георг Фридрих, Филипп Хайсс

О фильме: Эрика — профессор Венской консерватории. Она учит молодёжь дивной музыке Шуберта, сама же, будучи монстром современной цивилизации, страшно далека от гармонии небесных сфер. Она по-детски делит ложе со старой мегерой-мамашей, лишена всякого подобия личной жизни, после занятий тайно посещает порномагазины и под кроватью держит набор садомазохистских инструментов. Когда же в неё влюбляется один из учеников, шокирует и его, и зрителя совершенно дикими реакциями на юношеское чувство... Фильм по одноимённому роману Эльфриды Елинек (1963г.)



Качество: BDRip 720p
Формат: MKV
Видео: MPEG-4 AVC, 6158 Кбит/с, 1280x690, 23.976 Кадр/с
Аудио 1: русский, AC3, 448 kbps, 6 ch [профессиональный многоголосый]
Аудио 2: французский, AC3, 448 kbps, 6 ch, 48 kHz [оригинал]
Субтитры 1: русские
Субтитры 2: английские
Неименованные главы/чаптеры.
Общее
Уникальный идентификатор : 245655230965417892447851709022335524557 (0xB8CF79FDF24DDD4385DE80022669DECD)
Полное имя : D:\Video\Пианистка.2001.BDRip.720p by msltel.mkv
Формат : Matroska
Версия формата : Version 4 / Version 2
Размер файла : 6,46 Гбайт
Продолжительность : 2 ч. 11 м.
Общий поток : 7056 Кбит/сек
Название фильма : Rip by msltel
Дата кодирования : UTC 2017-12-17 06:31:36
Программа кодирования : mkvmerge v8.2.0 ('World of Adventure') 64bit
Библиотека кодирования : libebml v1.3.1 + libmatroska v1.4.2

Видео
Идентификатор : 1
Формат : AVC
Формат/Информация : Advanced Video Codec
Профиль формата : High@L4.1
Настройки формата : CABAC / 9 Ref Frames
Параметр CABAC формата : Да
Параметр RefFrames формата : 9 кадров
Идентификатор кодека : V_MPEG4/ISO/AVC
Продолжительность : 2 ч. 11 м.
Битрейт : 6158 Кбит/сек
Ширина : 1280 пикселей
Высота : 690 пикселей
Соотношение сторон : 1,85:1
Режим частоты кадров : Постоянный
Частота кадров : 23,976 (24000/1001) кадра/сек
Цветовое пространство : YUV
Субдискретизация насыщенности : 4:2:0
Битовая глубина : 8 бит
Тип развёртки : Прогрессивная
Бит/(Пиксели*Кадры) : 0.291
Размер потока : 5,64 Гбайт (87%)
Библиотека кодирования : x264 core 146 r2538 121396c
Настройки программы : cabac=1 / ref=9 / deblock=1:-3:-2 / analyse=0x3:0x113 / me=umh / subme=11 / psy=1 / psy_rd=1.00:0.15 / mixed_ref=1 / me_range=32 / chroma_me=1 / trellis=2 / 8x8dct=1 / cqm=0 / deadzone=21,11 / fast_pskip=0 / chroma_qp_offset=-3 / threads=6 / lookahead_threads=1 / sliced_threads=0 / nr=0 / decimate=1 / interlaced=0 / bluray_compat=0 / constrained_intra=0 / bframes=6 / b_pyramid=2 / b_adapt=2 / b_bias=0 / direct=1 / weightb=1 / open_gop=0 / weightp=2 / keyint=230 / keyint_min=23 / scenecut=40 / intra_refresh=0 / rc_lookahead=40 / rc=crf / mbtree=0 / crf=20.5 / qcomp=0.60 / qpmin=0 / qpmax=69 / qpstep=4 / vbv_maxrate=62500 / vbv_bufsize=78125 / crf_max=0.0 / nal_hrd=none / filler=0 / ip_ratio=1.40 / pb_ratio=1.30 / aq=1:1.00
Язык : French
Default : Да
Forced : Нет

Аудио #1
Идентификатор : 2
Формат : AC-3
Формат/Информация : Audio Coding 3
Идентификатор кодека : A_AC3
Продолжительность : 2 ч. 11 м.
Вид битрейта : Постоянный
Битрейт : 448 Кбит/сек
Каналы : 6 каналов
Расположение каналов : Front: L C R, Side: L R, LFE
Частота : 48,0 КГц
Частота кадров : 31,250 кадров/сек (1536 SPF)
Битовая глубина : 16 бит
Метод сжатия : С потерями
Размер потока : 420 Мбайт (6%)
Заголовок : MVO
Язык : Russian
ServiceKind/String : Complete Main
Default : Да
Forced : Нет

Аудио #2
Идентификатор : 3
Формат : AC-3
Формат/Информация : Audio Coding 3
Идентификатор кодека : A_AC3
Продолжительность : 2 ч. 11 м.
Вид битрейта : Постоянный
Битрейт : 448 Кбит/сек
Каналы : 6 каналов
Расположение каналов : Front: L C R, Side: L R, LFE
Частота : 48,0 КГц
Частота кадров : 31,250 кадров/сек (1536 SPF)
Битовая глубина : 16 бит
Метод сжатия : С потерями
Размер потока : 420 Мбайт (6%)
Заголовок : original
Язык : French
ServiceKind/String : Complete Main
Default : Нет
Forced : Нет

Текст #1
Идентификатор : 4
Формат : UTF-8
Идентификатор кодека : S_TEXT/UTF8
Идентификатор кодека/Информация : UTF-8 Plain Text
Продолжительность : 2 ч. 6 м.
Битрейт : 45 бит/сек
ElementCount : 676
Размер потока : 42,2 Кбайт (0%)
Заголовок : русские
Язык : Russian
Default : Нет
Forced : Нет

Текст #2
Идентификатор : 5
Формат : UTF-8
Идентификатор кодека : S_TEXT/UTF8
Идентификатор кодека/Информация : UTF-8 Plain Text
Продолжительность : 2 ч. 5 м.
Битрейт : 29 бит/сек
ElementCount : 896
Размер потока : 27,5 Кбайт (0%)
Заголовок : английские
Язык : English
Default : Нет
Forced : Нет

Меню
00:00:00.000 : :Chapter 01
00:08:20.541 : :Chapter 02
00:21:46.513 : :Chapter 03
00:30:06.679 : :Chapter 04
00:35:41.722 : :Chapter 05
00:39:56.352 : :Chapter 06
00:48:12.055 : :Chapter 07
00:54:51.621 : :Chapter 08
01:05:40.144 : :Chapter 09
01:16:33.505 : :Chapter 10
01:24:06.124 : :Chapter 11
01:38:59.892 : :Chapter 12
01:44:08.533 : :Chapter 13
01:50:51.686 : :Chapter 14
02:03:21.352 : :Chapter 15
02:11:03.021 : :Chapter 16
pb.wtf



Скачать Пианистка через торрент http://s013.radikal.ru/i322/1712/c3/72fc12897a35.jpg Скачать фильм Пианистка через торрент бесплантно в хорошем качестве О фильме: Эрика — профессор Венской консерватории. Она учит молодёжь дивной музыке Шуберта, сама же, будучи монстром современной ... 10 10 2
Info! Золотая раздача, скачанное не засчитывается.
Торрент: Зарегистрирован [2017-12-17 12:23] · скачан: 52 раз
Статус: √ проверено
Размер: 6.46 GB
Как cкачать? Как скачать Пианистка через торрент | qTorrent

% Раздел Тема Автор DL S | L
Фильмы [HD 720p, 1080p] (Хороший звук DUB, MVO) [ 17.59 GB ] Пианистка / La Pianiste [2001 музыка BDRip 1080p by msltel] MVO msltel Скачать
1 | 0

28-11-2019 20:33  

Отключить всю рекламу на сайте

    Дорогой пользователь! Огромная просьба, поблагодарите релизера, оцените раздачу и оставьте свои комментарий, если Вы скачали Пианистка через торрент бесплатно! Внесите свою лепту в развитие PiratBit!
    Комментировать посты могут только пользователи прошедшие не сложную регистрацию
    Показать сообщения:    

    Пианистка через торрент
    Скачать бесплатно Пианистка
    Пианистка скачать торрент
    Пианистка смотреть онлайн
    Cкачать фильм Пианистка бесплатно
    Пианистка скачать торрент в хорошем качестве
    Пианистка смотреть онлайн бесплатно в хорошем качестве


    Вы не можете начинать темы
    Вы не можете отвечать на сообщения
    Вы не можете редактировать свои сообщения
    Вы не можете удалять свои сообщения
    Вы не можете голосовать в опросах
    Вы не можете прикреплять файлы к сообщениям
    Вы можете скачивать файлы