2 сезон

iTunes

MVO

1

2 сезон

iTunes

iTunes

1 сезон

RePack

30

Ultimate

ВАЖНО

ИГРА 18+

pack

RePack

MK11
pack

Легкие деньги

RePack

jed

RePack

fifa19

RePack

RDR2

RePack

NEED FOR SPEED™ PAYBACK

4 сезон

9 сезон

Бесстыжие 9 сезон

Все сериалы

все сериалы на PB.wtf

RePack

FAR CRY 5

Anonymous, доброй ночи, мы не успеваем собрать деньги на оплату серверов за декабрь и январь, помогите нам пожалуйста в это трудное время. В качестве благодарности мы отключим Вам всю рекламу на сайте (укажите свой ник в строку Ваше имя)!

×
  
Magnet ссылка

Натуральные упыри / Eat Locals (Джейсон Флеминг) [2017, ужасы, боевик, комедия, HDRip] DUB [iTunes] pb.wtf

Натуральные упыри через торрент pb.wtf

Размер: 1.36 GB | Добавлен: 3 года 1 мес. назад | Торрент скачан:657 раз
Скачать  

17-12-2017 15:13 Натуральные упыри Скачать торрент  

Натуральные упыри / Eat LocalsГод выпуска: 2017
Страна: Великобритания
Жанр: ужасы, боевик, комедия
Продолжительность: 01:33:35
Перевод: Дубляж iTunes
Субтитры: отсутствуют

Режиссер: Джейсон Флеминг

rating

В ролях:

Билли Кук, Чарли Кокс, Макензи Крук, Тони Кёрран, Винсент Риган, Фрима Аджьеман, Ив Майлс, Декстер Флетчер, Ник Моран, Николас Роу

Описание:

Тот случай, когда свидание с милой девушкой превратилось в семейный ужин. Разговоры о былом величии, реновации и санкциях на поедание людей... Не успел опомниться, а дом уже окружил специальный отряд по борьбе с вампирами. И понеслась...

Качество: HDRip
Формат: AVI
Видео кодек: XviD
Аудио кодек: AC3

Видео: 1686 Кбит/с, 720x384
Аудио: Русский (AC3, 6 ch, 384 Кбит/с )
скриншот   скриншот   скриншот   скриншот   скриншот  

Общее
Полное имя : C:Ypiri.2017.D.HDRip.Rustorrents.avi
Формат : AVI
Формат/Информация : Audio Video Interleave
Размер файла : 1,36 Гбайт
Продолжительность : 1 ч. 33 м.
Общий поток : 2079 Кбит/сек
Название фильма : Rustorrents
Программа кодирования : VirtualDubMod 1.5.10.3 | www.virtualdub-fr.org || (build 2550/release)

Видео
Идентификатор : 0
Формат : MPEG-4 Visual
Профиль формата : Advanced Simple@L5
Параметр BVOP формата : 1
Параметр QPel формата : Нет
Параметр GMC формата : Без точки перехода
Параметр матрицы формата : Выборочная
Идентификатор кодека : XVID
Идентификатор кодека/Подсказка : XviD
Продолжительность : 1 ч. 33 м.
Битрейт : 1686 Кбит/сек
Ширина : 720 пикселей
Высота : 384 пикселя
Соотношение сторон : 1,85:1
Частота кадров : 23,976 (23976/1000) кадра/сек
Цветовое пространство : YUV
Субдискретизация насыщенности : 4:2:0
Битовая глубина : 8 бит
Тип развёртки : Прогрессивная
Метод сжатия : С потерями
Бит/(Пиксели*Кадры) : 0.254
Размер потока : 1,10 Гбайт (81%)
Библиотека кодирования : XviD 1.2.1 (UTC 2008-12-04)

Аудио
Идентификатор : 1
Формат : AC-3
Формат/Информация : Audio Coding 3
Расширение режима : CM (complete main)
Параметр Endianness формата : Big
Идентификатор кодека : 2000
Продолжительность : 1 ч. 33 м.
Вид битрейта : Постоянный
Битрейт : 384 Кбит/сек
Каналы : 6 каналов
Расположение каналов : Front: L C R, Side: L R, LFE
Частота : 48,0 КГц
Частота кадров : 31,250 кадров/сек (1536 spf)
Метод сжатия : С потерями
Размер потока : 257 Мбайт (18%)
Выравнивание : Разделение по промежуткам
Продолжительность промежутка : 42 мс. (1,00 видеокадр)
Время предзагрузки промежутка : 500 мс.
pb.wtf



Скачать Натуральные упыри через торрент http://i062.radikal.ru/1712/92/4d9d8f97eda0.jpg Скачать фильм Натуральные упыри через торрент бесплантно в хорошем качестве Описание: Тот случай, когда свидание с милой девушкой превратилось в семейный ужин. Разговоры о былом величии, реновации и санкциях на ... 9.5 10 22
Info! Золотая раздача, скачанное не засчитывается.
Торрент: Зарегистрирован [2017-12-17 15:13] · скачан: 657 раз
Статус: √ проверено
Размер: 1.36 GB
Как cкачать? Как скачать Натуральные упыри через торрент | UTorrent

% Раздел Тема Автор DL S | L
T Фильмы [HD 720p, 1080p] (Хороший звук DUB, MVO) [ 6.91 GB ] Натуральные упыри / Eat Locals [2016 BDRip 1080p] - -Lexx- Скачать
1 | 0
T Фильмы [HD 720p, 1080p] (Хороший звук DUB, MVO) [ 4.62 GB ] Натуральные упыри / Eat Locals [2017 BDRip 720p] bober100 Скачать
1 | 0

28-11-2019 20:33  

Отключить всю рекламу на сайте

17-12-2017 17:01 Натуральные упыри Скачать торрент  

Фильм - Шок.pb.wtf



18-12-2017 07:51 Натуральные упыри Скачать торрент  

hexos-com писал(а):

Фильм - Шок.

Ещё какой

pb.wtf



    Дорогой пользователь! Огромная просьба, поблагодарите релизера, оцените раздачу и оставьте свои комментарий, если Вы скачали Натуральные упыри через торрент бесплатно! Внесите свою лепту в развитие PiratBit!
    Комментировать посты могут только пользователи прошедшие не сложную регистрацию
    Показать сообщения:    

    Натуральные упыри через торрент
    Скачать бесплатно Натуральные упыри
    Натуральные упыри скачать торрент
    Натуральные упыри смотреть онлайн
    Cкачать фильм Натуральные упыри бесплатно
    Натуральные упыри скачать торрент в хорошем качестве
    Натуральные упыри смотреть онлайн бесплатно в хорошем качестве


    Вы не можете начинать темы
    Вы не можете отвечать на сообщения
    Вы не можете редактировать свои сообщения
    Вы не можете удалять свои сообщения
    Вы не можете голосовать в опросах
    Вы не можете прикреплять файлы к сообщениям
    Вы можете скачивать файлы