1 сезон

1 сезон

iTunes

1

КиноПоиск HD

Кинопоиск HD

iTunes

13

1 сезон

RePack

30

Ultimate

ВАЖНО

ИГРА 18+

pack

RePack

MK11
pack

Легкие деньги

RePack

jed

RePack

fifa19

RePack

RDR2

RePack

NEED FOR SPEED™ PAYBACK

4 сезон

9 сезон

Бесстыжие 9 сезон

Все сериалы

все сериалы на PB.wtf

RePack

FAR CRY 5
  
Magnet ссылка

Испанка / L'auberge espagnole (Седрик Клапиш) [2002 г, драма, мелодрама, комедия, BDRip-AVC] MVO pb.wtf

Испанка через торрент pb.wtf

Размер: 3.67 GB | Добавлен: 3 года 3 мес. назад | Торрент скачан:16 раз
Скачать  

17-12-2017 18:09 Испанка Скачать торрент  

Испанка / L'auberge espagnole
Год выпуска: 2002
Страна: Франция, Испания
Жанр: драма, мелодрама, комедия
Продолжительность: 02:01:40
Перевод: Профессиональный (многоголосый)
Субтитры: Русские, английские

Режиссер: Седрик Клапиш

rating

В ролях: Ромен Дюрис, Жюдит Годреш, Одри Тоту, Сесиль де Франс, Келли Райлли, Кристина Брондо, Федерико Д`Анна, Барнаби Мечурат, Кристиан Паг, Кевин Бишоп, Ксавьер Де Гийбон, Владимир Иорданов, Ирене Монтала, Хавьер Коромина, Иддо Голдберг, Мартина Демаре, Оливье Рейналь

Описание: Заскучав в родном Париже, молодой Ксавье отправляется в удивительную и непредсказуемую Барселону, куда съезжаются студенты со всей Европы. Поселившись в маленькой квартирке вместе с шумным итальянцем, деловой англичанкой, дотошным немцем, жгучей испанкой и неутомимым датчанином, он намерен учиться и только учиться. Однако вскоре он понимает, что в такой веселой компании его непременно ждут неожиданные и забавные приключения, а может быть, даже головокружительная любовь!

Качество: BDRip-AVC (L.Auberge.Espagnole.2002.BluRay.REMUX.VC-1.DTS-HD.MA.5.1-EPSiLON)
Формат: AVI
Видео: MPEG-4 AVC, 3495 Кбит/с, 1024x556, 23.976 кадр/с
Аудио #1: AC3, 6 ch, 384 Кбит/с | Русский
Аудио #2: AC3, 6 ch, 448 Кбит/с | Французский
Релиз от: Koenig
скриншот   скриншот   скриншот   скриншот   скриншот   скриншот  

Общее
Уникальный идентификатор : 244803945838576866331437645897357388157 (0xB82B86650DE838F3A1E42DA270F0E97D)
Полное имя : L.Auberge.Espagnole.2002.BDRip-AVC.mkv
Формат : Matroska
Версия формата : Version 4 / Version 2
Размер файла : 3,67 Гбайт
Продолжительность : 2 ч. 1 м.
Общий поток : 4323 Кбит/сек
Название фильма : L.Auberge.Espagnole.2002.BDRip-AVC by Koenig
Дата кодирования : UTC 2017-12-17 17:00:28
Программа кодирования : mkvmerge v12.0.0 ('Trust / Lust') 32bit
Библиотека кодирования : libebml v1.3.4 + libmatroska v1.4.5
Обложка : Yes
Attachments : cover.jpg

Видео
Идентификатор : 1
Формат : AVC
Формат/Информация : Advanced Video Codec
Профиль формата : High@L4.1
Параметр CABAC формата : Да
Параметр ReFrames формата : 13 кадров
Идентификатор кодека : V_MPEG4/ISO/AVC
Продолжительность : 2 ч. 1 м.
Битрейт : 3495 Кбит/сек
Ширина : 1024 пикселя
Высота : 556 пикселей
Соотношение сторон : 1,85:1
Режим частоты кадров : Постоянный
Частота кадров : 23,976 (24000/1001) кадра/сек
Цветовое пространство : YUV
Субдискретизация насыщенности : 4:2:0
Битовая глубина : 8 бит
Тип развёртки : Прогрессивная
Бит/(Пиксели*Кадры) : 0.256
Размер потока : 2,97 Гбайт (81%)
Заголовок : L.Auberge.Espagnole.2002.BDRip-AVC
Библиотека кодирования : x264 core 152 r2851 ba24899
Настройки программы : cabac=1 / ref=13 / deblock=1:-3:-3 / analyse=0x3:0x133 / me=umh / subme=10 / psy=1 / psy_rd=1.05:0.10 / mixed_ref=1 / me_range=32 / chroma_me=1 / trellis=2 / 8x8dct=1 / cqm=0 / deadzone=21,11 / fast_pskip=0 / chroma_qp_offset=-3 / threads=3 / lookahead_threads=1 / sliced_threads=0 / nr=0 / decimate=1 / interlaced=0 / bluray_compat=0 / constrained_intra=0 / bframes=10 / b_pyramid=2 / b_adapt=2 / b_bias=0 / direct=3 / weightb=1 / open_gop=0 / weightp=2 / keyint=240 / keyint_min=23 / scenecut=40 / intra_refresh=0 / rc_lookahead=40 / rc=2pass / mbtree=1 / bitrate=3495 / ratetol=1.0 / qcomp=0.60 / qpmin=10 / qpmax=51 / qpstep=4 / cplxblur=20.0 / qblur=0.5 / vbv_maxrate=50000 / vbv_bufsize=62500 / nal_hrd=none / filler=0 / ip_ratio=1.40 / aq=1:1.00
Default : Да
Forced : Нет

Аудио #1
Идентификатор : 2
Формат : AC-3
Формат/Информация : Audio Coding 3
Параметр Endianness формата : Big
Идентификатор кодека : A_AC3
Продолжительность : 2 ч. 1 м.
Вид битрейта : Постоянный
Битрейт : 384 Кбит/сек
Каналы : 6 каналов
Расположение каналов : Front: L C R, Side: L R, LFE
Частота : 48,0 КГц
Частота кадров : 31,250 кадров/сек (1536 spf)
Битовая глубина : 16 бит
Метод сжатия : С потерями
Размер потока : 334 Мбайт (9%)
Заголовок : MVO
Язык : Russian
ServiceKind/String : Complete Main
Default : Да
Forced : Нет

Аудио #2
Идентификатор : 3
Формат : AC-3
Формат/Информация : Audio Coding 3
Параметр Endianness формата : Big
Идентификатор кодека : A_AC3
Продолжительность : 2 ч. 1 м.
Вид битрейта : Постоянный
Битрейт : 448 Кбит/сек
Каналы : 6 каналов
Расположение каналов : Front: L C R, Side: L R, LFE
Частота : 48,0 КГц
Частота кадров : 31,250 кадров/сек (1536 spf)
Битовая глубина : 16 бит
Метод сжатия : С потерями
Размер потока : 390 Мбайт (10%)
Язык : French
ServiceKind/String : Complete Main
Default : Нет
Forced : Нет

Текст #1
Идентификатор : 4
Формат : UTF-8
Идентификатор кодека : S_TEXT/UTF8
Идентификатор кодека/Информация : UTF-8 Plain Text
Продолжительность : 1 ч. 57 м.
Битрейт : 89 бит/сек
ElementCount : 1217
Размер потока : 76,7 Кбайт (0%)
Язык : Russian
Default : Да
Forced : Нет

Текст #2
Идентификатор : 5
Формат : UTF-8
Идентификатор кодека : S_TEXT/UTF8
Идентификатор кодека/Информация : UTF-8 Plain Text
Продолжительность : 1 ч. 55 м.
Битрейт : 41 бит/сек
ElementCount : 1221
Размер потока : 35,0 Кбайт (0%)
Язык : English
Default : Нет
Forced : Нет

Меню
00:00:00.000 : en:Chapter 1
00:02:15.135 : en:Chapter 2
00:11:28.104 : en:Chapter 3
00:18:02.081 : en:Chapter 4
00:30:31.788 : en:Chapter 5
00:42:31.466 : en:Chapter 6
00:55:44.591 : en:Chapter 7
01:08:27.228 : en:Chapter 8
01:17:09.625 : en:Chapter 9
01:24:27.562 : en:Chapter 10
01:36:15.603 : en:Chapter 11
01:44:05.072 : en:Chapter 12
01:49:09.960 : en:Chapter 13
01:55:47.899 : en:Chapter 14

pb.wtf



Скачать Испанка через торрент https://pic1.kartinco.top/images/11/ojmxq.jpg Скачать фильм Испанка через торрент бесплантно в хорошем качестве Описание: Заскучав в родном Париже, молодой Ксавье отправляется в удивительную и непредсказуемую Барселону, куда съезжаются студенты со ... 5 10 1
Торрент: Зарегистрирован [2017-12-17 18:09] · скачан: 16 раз
Статус: √ проверено
Размер: 3.67 GB
Как cкачать? Как скачать Испанка через торрент | UTorrent

28-11-2019 20:33  

Отключить всю рекламу на сайте

    Дорогой пользователь! Огромная просьба, поблагодарите релизера, оцените раздачу и оставьте свои комментарий, если Вы скачали Испанка через торрент бесплатно! Внесите свою лепту в развитие PiratBit!
    Комментировать посты могут только пользователи прошедшие не сложную регистрацию
    Показать сообщения:    

    Испанка через торрент
    Скачать бесплатно Испанка
    Испанка скачать торрент
    Испанка смотреть онлайн
    Cкачать фильм Испанка бесплатно
    Испанка скачать торрент в хорошем качестве
    Испанка смотреть онлайн бесплатно в хорошем качестве


    Вы не можете начинать темы
    Вы не можете отвечать на сообщения
    Вы не можете редактировать свои сообщения
    Вы не можете удалять свои сообщения
    Вы не можете голосовать в опросах
    Вы не можете прикреплять файлы к сообщениям
    Вы можете скачивать файлы