2 сезон

iTunes

1 сезон

1

iTunes

iTunes

iTunes

1 сезон

RePack

30

ИГРА 18+

pack

ВАЖНО

!!Акция!!

Alien_RageХит недели

RePack

MK11
pack

Забери бонус

RePack

jed

!!Акция!!

Alien_Rage

RePack

fifa19

RePack

Assassins Creed: Odyssey

RePack

NEED FOR SPEED™ PAYBACK

4 сезон

9 сезон

Бесстыжие 9 сезон

Все сериалы

все сериалы на PB.wtf

RePack

FAR CRY 5
  

Жизнь и судьба / Серии 1-12 из 12 (Сергей Урсуляк) [2015, Военный, драма, экранизация, ВОВ, BD Remux 1080p] pb.wtf

Жизнь и судьба через торрент pb.wtf

Размер: 37.13 GB | Добавлен: 2 года 10 мес. назад | Торрент скачан:44 раза
Скачать  

17-12-2017 18:42 Жизнь и судьба Скачать торрент  

Жизнь и судьбаГод выпуска: 2015
Страна: Россия
Жанр: Военный, драма, экранизация, ВОВ
Продолжительность: ~ 00:50:00
Перевод: Не требуется
Субтитры: отсутствуют

Режиссер: Сергей Урсуляк

rating

В ролях:

Сергей Маковецкий, Александр Балуев, Сергей Пускепалис, Лика Нифонтова, Анна Михалкова, Евгений Дятлов, Полина Агуреева, Виктор Яковлев, Никита Тезин, Нина Антюхова, Дмитрий Родонов, Анастасия Фурса, Константин Тополага, Александр Бочаров (II), Илья Мозговой, Владимир Жарков, Александр Никольский

Описание:

По роману Василия Гроссмана "Жизнь и судьба". Сюжет разворачивается в 1942–1943 годы, в период обороны Сталинграда. Еврей Виктор Штрум – талантливый физик-ядерщик, работающий в одном из институтов страны над созданием атомной бомбы. В это время близкие Штрума погибают в гитлеровских лагерях и застенках НКВД, на него самого начинаются гонения. Изобретателя может спасти только его научное детище, которым заинтересовался сам Сталин.

Качество: BD Remux 1080p
Формат: MKV
Видео кодек: H.264
Аудио кодек: AC3

Видео: MPEG-4 AVC, 10743 Kбит/с, 1920x1080, 24 кадр/с
Аудио: AC3, 2 ch, 192 Кбит/с
скриншот   скриншот   скриншот   скриншот   скриншот   скриншот  

Общее
Уникальный идентификатор : 242496291209102637491223269984729344665 (0xB66F163CBC36E655909290F98FB8AA99)
Полное имя : D:ЗагрузкиZhizn.I.Sudba.2012.BDRemux.(1080p).OlLanDGroupZhizn.I.Sudba.E01.2012.BDRemux.(1080p).OlLanDGroup.mkv
Формат : Matroska
Версия формата : Version 2
Размер файла : 3,81 Гбайт
Продолжительность : 49 м.
Режим общего битрейта : Переменный
Общий поток : 10,9 Мбит/сек
Название фильма : Жизнь и судьба.1 серия.2012.Сборка: ollan
Дата кодирования : UTC 2017-12-17 13:51:52
Программа кодирования : mkvmerge v5.6.0 ('Kenya Kane') built on May 27 2012 16:44:04
Библиотека кодирования : libebml v1.2.3 + libmatroska v1.3.0
Attachements : Cover - Zhizn.I.Sudba.png

Видео
Идентификатор : 1
Формат : AVC
Формат/Информация : Advanced Video Codec
Профиль формата : High@L4
Параметр CABAC формата : Да
Параметр ReFrames формата : 2 кадра
Параметр GOP формата : M=2, N=13
Идентификатор кодека : V_MPEG4/ISO/AVC
Продолжительность : 49 м.
Вид битрейта : Переменный
Битрейт : 10,5 Мбит/сек
Максимальный битрейт : 12,0 Мбит/сек
Ширина : 1920 пикселей
Высота : 1080 пикселей
Соотношение сторон : 16:9
Режим частоты кадров : Постоянный
Частота кадров : 24,000 кадра/сек
Цветовое пространство : YUV
Субдискретизация насыщенности : 4:2:0
Битовая глубина : 8 бит
Тип развёртки : Прогрессивная
Бит/(Пиксели*Кадры) : 0.211
Размер потока : 3,67 Гбайт (96%)
Язык : Russian
Default : Да
Forced : Нет

Аудио
Идентификатор : 2
Формат : AC-3
Формат/Информация : Audio Coding 3
Расширение режима : CM (complete main)
Параметр Endianness формата : Big
Идентификатор кодека : A_AC3
Продолжительность : 49 м.
Вид битрейта : Постоянный
Битрейт : 192 Кбит/сек
Каналы : 2 канала
Расположение каналов : Front: L R
Частота : 48,0 КГц
Частота кадров : 31,250 кадров/сек (1536 spf)
Метод сжатия : С потерями
Размер потока : 68,6 Мбайт (2%)
Язык : Russian
Default : Да
Forced : Нет

pb.wtf



Скачать Жизнь и судьба через торрент http://pic1.kartinco.top/images/11/sbrgf.jpg Скачать фильм Жизнь и судьба через торрент бесплантно в хорошем качестве Описание: По роману Василия Гроссмана "Жизнь и судьба". Сюжет разворачивается в 1942–1943 годы, в период обороны Сталинграда. Еврей Виктор ... 9.8 10 6
Info! Золотая раздача, скачанное не засчитывается.
Торрент: Зарегистрирован [2017-12-17 18:42] · скачан: 44 раз
Статус: √ проверено
Размер: 37.13 GB
Как cкачать? Как скачать Жизнь и судьба через торрент | qTorrent

% Раздел Тема Автор DL S | L
Наши сериалы [ 23.75 GB ] Жизнь и судьба / Серии: 1-6 из 6 [2012 военный 2xDVD9 + 2xDVD5] R5 voovaz Скачать
1 | 0

28-11-2019 20:33  

Отключить всю рекламу на сайте

    Дорогой пользователь! Огромная просьба, поблагодарите релизера, оцените раздачу и оставьте свои комментарий, если Вы скачали Жизнь и судьба через торрент бесплатно! Внесите свою лепту в развитие PiratBit!
    Комментировать посты могут только пользователи прошедшие не сложную регистрацию
    Показать сообщения:    

    Жизнь и судьба через торрент
    Скачать бесплатно Жизнь и судьба
    Жизнь и судьба скачать торрент
    Жизнь и судьба смотреть онлайн
    Cкачать фильм Жизнь и судьба бесплатно
    Жизнь и судьба скачать торрент в хорошем качестве
    Жизнь и судьба смотреть онлайн бесплатно в хорошем качестве


    Вы не можете начинать темы
    Вы не можете отвечать на сообщения
    Вы не можете редактировать свои сообщения
    Вы не можете удалять свои сообщения
    Вы не можете голосовать в опросах
    Вы не можете прикреплять файлы к сообщениям
    Вы можете скачивать файлы