Ссылка на приватное зеркало всего за 1$. Внимание количество ограничено!!!

OK

1+1

iTunes

мы

OK

1

WEB-DLRip

Джокер

Пифагор

Ведьмак / The Witcher сериал

iTunes

ПШазам

ОК

Оно 2

iTunes

30
pack

Вам бонус

ВАЖНО

!!Акция!!

Alien_RageХит недели

RePack

Resident Evil 21

ИГРА 18+

pack

RePack

jed

RePack

fifa19

RePack

Assassins Creed: Odyssey

RePack

NEED FOR SPEED™ PAYBACK

4 сезон

9 сезон

Бесстыжие 9 сезон

Все сериалы

все сериалы на PB.wtf

RePack

FAR CRY 5
  

В тени / Under the Shadow (Бабак Анвари) [2016, ужасы, BDRip 720p] MVO [Синема УС] pb.wtf

В тени через торрент pb.wtf

Размер: 3.52 GB | Добавлен: 2 года 1 мес. назад | Торрент скачан:125 раз
Скачать  

17-12-2017 20:11 В тени Скачать торрент  

В тени / Under the ShadowГод выпуска: 2016
Страна: Великобритания, Иран, Катар, Иордания
Жанр: ужасы
Продолжительность: 01:24:35
Перевод: Любительский (многоголосый) [Синема УС]
Субтитры: отсутствуют

Режиссер: Бабак Анвари

rating

В ролях:

Наргес Рашиди, Бобби Надери, Араш Маранди, Рэй Харатиан, Хамид Джавадан, Бехи Джанати Атаи, Биджан Данешманд

Описание:

Тегеран 80-х после революции, усугубляется конфликт с Ираком. Матери и дочери и так несладко живётся, так ещё и какое-то неведомое зло поселилось в их доме.

Качество: BDRip 720p
Формат: MKV
Видео кодек: H.264
Аудио кодек: AC3

Видео: 5511 Кбит/с, 1280x536
Аудио#1: Русский (AC3, 2 ch, 448 Кбит/с)

скриншот   скриншот   скриншот  

Общее
Уникальный идентификатор : 202187575676997735988347425583130619012 (0x981BE91F9166A05E809F748ABCB22C84)
Полное имя : D:\Under.the.Shadow.2016.P.BDRip.72Op_KOSHARA.mkv
Формат : Matroska
Версия формата : Version 2
Размер файла : 3,52 Гбайт
Продолжительность : 1 ч. 24 м.
Режим общего битрейта : Переменный
Общий поток : 5961 Кбит/сек
Дата кодирования : UTC 2017-12-17 06:14:20
Программа кодирования : mkvmerge v8.3.0 ('Over the Horizon') 64bit
Библиотека кодирования : libebml v1.3.1 + libmatroska v1.4.2

Видео
Идентификатор : 1
Формат : AVC
Формат/Информация : Advanced Video Codec
Профиль формата : High@L4.1
Параметр CABAC формата : Да
Параметр ReFrames формата : 12 кадров
Идентификатор кодека : V_MPEG4/ISO/AVC
Продолжительность : 1 ч. 24 м.
Вид битрейта : Переменный
Битрейт : 5511 Кбит/сек
Максимальный битрейт : 6000 Кбит/сек
Ширина : 1280 пикселей
Высота : 536 пикселей
Соотношение сторон : 2,40:1
Режим частоты кадров : Постоянный
Частота кадров : 24,000 кадра/сек
Стандарт вещания : Component
Цветовое пространство : YUV
Субдискретизация насыщенности : 4:2:0
Битовая глубина : 8 бит
Тип развёртки : Прогрессивная
Бит/(Пиксели*Кадры) : 0.328
Размер потока : 3,19 Гбайт (90%)
Default : Да
Forced : Нет
Цветовой диапазон : Limited
Основные цвета : BT.709
Характеристики трансфера : BT.709
Коэффициенты матрицы : BT.709

Аудио
Идентификатор : 2
Формат : AC-3
Формат/Информация : Audio Coding 3
Расширение режима : CM (complete main)
Параметр Endianness формата : Big
Идентификатор кодека : A_AC3
Продолжительность : 1 ч. 24 м.
Вид битрейта : Постоянный
Битрейт : 448 Кбит/сек
Каналы : 2 канала
Расположение каналов : Front: L R
Частота : 48,0 КГц
Частота кадров : 31,250 кадров/сек (1536 spf)
Метод сжатия : С потерями
Размер потока : 271 Мбайт (8%)
Default : Да
Forced : Нет

pb.wtf



Скачать В тени через торрент http://s020.radikal.ru/i714/1712/ea/1b4820cc3995.jpg Скачать фильм В тени через торрент бесплантно в хорошем качестве Описание: Тегеран 80-х после революции, усугубляется конфликт с Ираком. Матери и дочери и так несладко живётся, так ещё и какое-то ... 8 10 5
Торрент: Зарегистрирован [2017-12-17 20:11] · скачан: 125 раз
Статус: T временная
Размер: 3.52 GB
Как cкачать? Как скачать В тени через торрент | qTorrent

% Раздел Тема Автор DL S | L
T Фильмы (мультфильмы) cо спонсором показа (Новинки AVI/MKV) [ 1.36 GB ] В тени / Under the Shadow [2016 HDRip] MVO [Синема УС] bober100 Скачать
1 | 0

28-11-2019 20:33  

Отключить всю рекламу на сайте

    Дорогой пользователь! Огромная просьба, поблагодарите релизера, оцените раздачу и оставьте свои комментарий, если Вы скачали В тени через торрент бесплатно! Внесите свою лепту в развитие PiratBit!
    Комментировать посты могут только пользователи прошедшие не сложную регистрацию
    Показать сообщения:    

    В тени через торрент
    Скачать бесплатно В тени
    В тени скачать торрент
    В тени смотреть онлайн
    Cкачать фильм В тени бесплатно
    В тени скачать торрент в хорошем качестве
    В тени смотреть онлайн бесплатно в хорошем качестве


    Вы не можете начинать темы
    Вы не можете отвечать на сообщения
    Вы не можете редактировать свои сообщения
    Вы не можете удалять свои сообщения
    Вы не можете голосовать в опросах
    Вы не можете прикреплять файлы к сообщениям
    Вы можете скачивать файлы