Ссылка на приватное зеркало всего за 1$. Внимание количество ограничено!!!

OK

1+1

iTunes

мы

OK

1

WEB-DLRip

Джокер

Пифагор

Ведьмак / The Witcher сериал

iTunes

ПШазам

ОК

Оно 2

iTunes

30
pack

Вам бонус

ВАЖНО

!!Акция!!

Alien_RageХит недели

RePack

Resident Evil 21

ИГРА 18+

pack

RePack

jed

RePack

fifa19

RePack

Assassins Creed: Odyssey

RePack

NEED FOR SPEED™ PAYBACK

4 сезон

9 сезон

Бесстыжие 9 сезон

Все сериалы

все сериалы на PB.wtf

RePack

FAR CRY 5
  

Неестественный / Unnatural (Хэнк Брэкстэн) [2015, Ужасы, боевик, триллер, BDRip 720p] MVO [СПД] pb.wtf

Неестественный через торрент pb.wtf

Размер: 3.39 GB | Добавлен: 2 года 1 мес. назад | Торрент скачан:77 раз
Скачать  

18-12-2017 04:41 Неестественный Скачать торрент  

Неестественный / UnnaturalГод выпуска: 2015
Страна: США
Жанр: Ужасы, боевик, триллер
Продолжительность: 01:26:42
Перевод: Любительский (многоголосый) - [СПД]
Субтитры: отсутствуют

Режиссер: Хэнк Брэкстэн

rating

В ролях:

Джеймс Римар, Шерилин Фенн, Рон Карлсон, Грэм Грин, Аллегра Карпентер, Рэй Уайз, К`Орианка Килчер, Стефани Ходос, Грегори Норман Крус

Описание:

Глобальные климатические изменения вынуждают научную экспедицию отправиться на Аляску, чтобы изменить генетический код полярных медведей. Однако, они не ожидали настолько губительных последствий.

Качество: BDRip 720p
Формат: MKV
Видео кодек: H.264
Аудио кодек: AC3

Видео: 5154 Кбит/с, 1280x720
Аудио#1: AC3, 2 ch, 448 Кбит/с

скриншот   скриншот   скриншот  

Общее
Уникальный идентификатор : 225272072417269736712328562854201488828 (0xA979D2AF7D5730CB8017B130823175BC)
Полное имя : D:\Unnatural.2016.P.BDRip.72Op_KOSHARA.mkv
Формат : Matroska
Версия формата : Version 2
Размер файла : 3,39 Гбайт
Продолжительность : 1 ч. 26 м.
Режим общего битрейта : Переменный
Общий поток : 5604 Кбит/сек
Дата кодирования : UTC 2017-12-17 03:34:46
Программа кодирования : mkvmerge v8.3.0 ('Over the Horizon') 64bit
Библиотека кодирования : libebml v1.3.1 + libmatroska v1.4.2

Видео
Идентификатор : 1
Формат : AVC
Формат/Информация : Advanced Video Codec
Профиль формата : High@L4.1
Параметр CABAC формата : Да
Параметр ReFrames формата : 9 кадров
Идентификатор кодека : V_MPEG4/ISO/AVC
Продолжительность : 1 ч. 26 м.
Вид битрейта : Переменный
Битрейт : 5154 Кбит/сек
Максимальный битрейт : 6000 Кбит/сек
Ширина : 1280 пикселей
Высота : 720 пикселей
Соотношение сторон : 16:9
Режим частоты кадров : Постоянный
Частота кадров : 23,976 (24000/1001) кадра/сек
Стандарт вещания : Component
Цветовое пространство : YUV
Субдискретизация насыщенности : 4:2:0
Битовая глубина : 8 бит
Тип развёртки : Прогрессивная
Бит/(Пиксели*Кадры) : 0.228
Размер потока : 3,05 Гбайт (90%)
Default : Да
Forced : Нет
Цветовой диапазон : Limited
Основные цвета : BT.709
Характеристики трансфера : BT.709
Коэффициенты матрицы : BT.709

Аудио
Идентификатор : 2
Формат : AC-3
Формат/Информация : Audio Coding 3
Расширение режима : CM (complete main)
Параметр Endianness формата : Big
Идентификатор кодека : A_AC3
Продолжительность : 1 ч. 26 м.
Вид битрейта : Постоянный
Битрейт : 448 Кбит/сек
Каналы : 2 канала
Расположение каналов : Front: L R
Частота : 48,0 КГц
Частота кадров : 31,250 кадров/сек (1536 spf)
Метод сжатия : С потерями
Размер потока : 278 Мбайт (8%)
Default : Да
Forced : Нет

pb.wtf



Скачать Неестественный через торрент http://s020.radikal.ru/i720/1712/c4/3e5b93dc6ad0.jpg Скачать фильм Неестественный через торрент бесплантно в хорошем качестве Описание: Глобальные климатические изменения вынуждают научную экспедицию отправиться на Аляску, чтобы изменить генетический код полярных ... 8.5 10 6
Торрент: Зарегистрирован [2017-12-18 04:41] · скачан: 77 раз
Статус: T временная
Размер: 3.39 GB
Как cкачать? Как скачать Неестественный через торрент | qTorrent

% Раздел Тема Автор DL S | L
T Фильмы (мультфильмы) cо спонсором показа (Новинки AVI/MKV) [ 1.37 GB ] Неестественный / Unnatural [2015 HDRip] MVO [СПД] bober100 Скачать
1 | 0
T Фильмы 2015 (Звук TS, Cam, VO, DVO) [ 1.35 GB ] Неестественный / Unnatural [2015 DVDRip] VO Ворон Скачать
1 | 0

28-11-2019 20:33  

Отключить всю рекламу на сайте


18-12-2017 17:48 Неестественный Скачать торрент  

Фильм формата ТВ3pb.wtf



    Дорогой пользователь! Огромная просьба, поблагодарите релизера, оцените раздачу и оставьте свои комментарий, если Вы скачали Неестественный через торрент бесплатно! Внесите свою лепту в развитие PiratBit!
    Комментировать посты могут только пользователи прошедшие не сложную регистрацию
    Показать сообщения:    

    Неестественный через торрент
    Скачать бесплатно Неестественный
    Неестественный скачать торрент
    Неестественный смотреть онлайн
    Cкачать фильм Неестественный бесплатно
    Неестественный скачать торрент в хорошем качестве
    Неестественный смотреть онлайн бесплатно в хорошем качестве


    Вы не можете начинать темы
    Вы не можете отвечать на сообщения
    Вы не можете редактировать свои сообщения
    Вы не можете удалять свои сообщения
    Вы не можете голосовать в опросах
    Вы не можете прикреплять файлы к сообщениям
    Вы можете скачивать файлы