Ссылка на приватное зеркало нашего сайта всего за 1$. Внимание количество ограничено!!!

2 сезон

iTunes

1 сезон

1

2 сезон

2 сезон

iTunes

1 сезон

RePack

30

Ultimate

ВАЖНО

ИГРА 18+

pack

RePack

MK11
pack

Забери бонус

RePack

jed

!!Акция!!

Alien_Rage

RePack

fifa19

RePack

Assassins Creed: Odyssey

RePack

NEED FOR SPEED™ PAYBACK

4 сезон

9 сезон

Бесстыжие 9 сезон

Все сериалы

все сериалы на PB.wtf

RePack

FAR CRY 5
  

Пращи и стрелы / Slings and Arrows / Сезон: 1 / Серии 1-6 из 6 (Питер Веллингтон) [2003, комедия, драма, HDRip] [MVO] (AlexFilm) pb.wtf

Пращи и стрелы через торрент pb.wtf

Размер: 3.26 GB | Добавлен: 2 года 10 мес. назад | Торрент скачан:34 раза
Скачать  

18-12-2017 07:46 Пращи и стрелы Скачать торрент  

Пращи и стрелы / Slings and ArrowsСлоган: "Настоящее представление - за кулисами." Год выпуска: 2003
Страна: Канада
Жанр: комедия, драма
Продолжительность: ~00:46:17
Перевод: Профессиональное (многоголосое закадровое) (AlexFilm)

Режиссер: Питер Веллингтон

В ролях: Пол Гросс, Марта Бернс, Стефен Виметт, Марк Маккини, Дон Маккеллар, Рейчел Макаддамс, Дженнифер Ирвин, Люк Кирби, Сюзан Койн и т.д.

Описание: Городской театр ставит "Гамлета". Исполнитель главной роли - кинозвезда экшена, молодая актриса уверена, что Офелию легче всего играть под кайфом, главная прима больше занята молодыми любовниками, финансовый директор занимается интригами, а что касается режиссера, так его недавно выпустили из сумасшедшего дома и советы по постановке ему дает один надоедливый призрак, а это, согласитесь, раздражает. Так состоится ли премьера?

"Этому месту не помешает немного безумия"

Что такое театр? Закулисные дрязги - или высокое искусство? Драмы шекспировских героев и драмы в человеческой жизни - так ли они далеки друг от друга? Что побеждает - практический рассчет и смета бизнесмена или поэтическая вера?

Искрометный юмор, гениальная актерская игра, бесподобные диалоги, живые интриги - в сериале "Пращи и стрелы".

Сериал "Пращи и стрелы" удостоился рекордного количества самых престижных наград и номинаций и всеобщего признания критиков.
Релиз:

Перевод: Леонид Дмитриев
Монтаж и сведение звука: Михаил Суслов
Роли озвучивали:
Екатерина Муравицкая
Алёна Левичева
Кирилл Патрино
Константин Погодаев
Константин Федосеев
Леонид Дмитриев
Михаил Суслов



Качество: HDRip
Формат: AVI
Видео: 720x400 (16:9), 23.976 fps, XviD ~1400 kbps avg, 0.20 bit/pixel
Аудио Rus: 48 kHz, MPEG Layer 3, 2 ch, ~128.00 kbps avg
Аудио Eng: 48 kHz, MPEG Layer 3, 2 ch, ~128.00 kbps avg
Субтитры: нет
Реклама: отсутствует
скриншот  скриншот  скриншот  
Формат : AVI
Формат/Информация : Audio Video Interleave
Размер файла : 556 Мбайт
Продолжительность : 46 м. 27 с.
Общий поток : 1673 Кбит/сек
Название фильма : Slings and Arrows 1x01 @ AlexFilm
Программа кодирования : VirtualDubMod 1.5.10.2 (build 2540/release)
Библиотека кодирования : VirtualDubMod build 2540/release

Видео
Идентификатор : 0
Формат : MPEG-4 Visual
Профиль формата : Advanced Simple@L5
Параметр BVOP формата : Нет
Параметр QPel формата : Нет
Параметр GMC формата : Без точки перехода
Параметр матрицы формата : Default (MPEG)
Идентификатор кодека : XVID
Идентификатор кодека/Подсказка : XviD
Продолжительность : 46 м. 27 с.
Битрейт : 1404 Кбит/сек
Ширина : 720 пикселей
Высота : 400 пикселей
Соотношение сторон : 16:9
Частота кадров : 23,976 (23976/1000) кадра/сек
Цветовое пространство : YUV
Субдискретизация насыщенности : 4:2:0
Битовая глубина : 8 бит
Тип развёртки : Прогрессивная
Метод сжатия : С потерями
Бит/(Пиксели*Кадры) : 0.203
Размер потока : 466 Мбайт (84%)
Библиотека кодирования : XviD 73

Аудио #1
Идентификатор : 1
Формат : MPEG Audio
Версия формата : Version 1
Профиль формата : Layer 3
Режим : Joint stereo
Идентификатор кодека : 55
Идентификатор кодека/Подсказка : MP3
Продолжительность : 46 м. 25 с.
Вид битрейта : Постоянный
Битрейт : 128 Кбит/сек
Каналы : 2 канала
Частота : 48,0 КГц
Метод сжатия : С потерями
Размер потока : 42,5 Мбайт (8%)
Выравнивание : Соединение по промежуткам
Продолжительность промежутка : 42 мс. (1,00 видеокадр)
Время предзагрузки промежутка : 504 мс.
Заголовок : Russian (AlexFilm)
Библиотека кодирования : LAME3.99r
Настройки программы : -m j -V 4 -q 3 -lowpass 18 -b 128

Аудио #2
Идентификатор : 2
Формат : MPEG Audio
Версия формата : Version 1
Профиль формата : Layer 3
Режим : Joint stereo
Расширение режима : MS Stereo
Идентификатор кодека : 55
Идентификатор кодека/Подсказка : MP3
Продолжительность : 46 м. 27 с.
Вид битрейта : Постоянный
Битрейт : 128 Кбит/сек
Каналы : 2 канала
Частота : 48,0 КГц
Метод сжатия : С потерями
Размер потока : 42,5 Мбайт (8%)
Выравнивание : Соединение по промежуткам
Продолжительность промежутка : 42 мс. (1,00 видеокадр)
Время предзагрузки промежутка : 504 мс.
Заголовок : English
Внимание! Раздача ведётся путём добавления новых серий; при каждом добавлении создаётся новый торрент. Чтобы начать докачку новой серии, пользователям необходимо сделать следующее:
(1) остановить скачивание,
(2) удалить старый торрент у себя из клиента (старые серии удалять не надо),
(3) скачать новый торрент и запустить его у себя в клиенте вместо старого, при этом указать клиенту путь в старую папку куда и должно происходить скачивание новых серий.
Ваш клиент при этом должен произвести хеширование (проверку) старой папки (если не производит сам - помогите ему сделать это), и будет докачивать только те серии которых у вас ещё нет. Старые серии при этом не удаляются, а продолжают раздаваться!
Eсли вы уже удалили старые серии, то предотвратить повторную закачку старых серий можно, отжав галочку в соответствующих местах при запуске нового торрента. По возможности, желательно не удалять старые серии как можно дольше чтобы релизёр не столько продолжал раздавать старые серии, а смог сконцентрироваться на новых.
pb.wtf



Скачать Пращи и стрелы через торрент http://i98.fastpic.ru/big/2017/1204/75/c13740a6277d21e48ec1cf12c38e0d75.jpg Скачать фильм Пращи и стрелы через торрент бесплантно в хорошем качестве Описание: Городской театр ставит "Гамлета". Исполнитель главной роли - кинозвезда экшена, молодая актриса уверена, что Офелию легче всего ... 10 10 7
Торрент: Зарегистрирован [2018-01-08 12:45] · скачан: 34 раз
Статус: √ проверено
Размер: 3.26 GB
Как cкачать? Как скачать Пращи и стрелы через торрент | qTorrent

% Раздел Тема Автор DL S | L
Зарубежные сериалы [ 1.09 GB ] Пращи и стрелы / Slings and Arrows / Сезон: 2 / Серии 1-2 из 6 [2005 HDRip] [MVO] killermax2013 Скачать
1 | 0


Последний раз редактировалось: killermax2013 (2018-01-08 12:45), всего редактировалось 1 раз

28-11-2019 20:33  

Отключить всю рекламу на сайте

20-12-2017 14:05 Пращи и стрелы Скачать торрент  

+4pb.wtf



20-12-2017 14:23 Пращи и стрелы Скачать торрент  

Привет. А в чем фишка? Есть же все 3 сезона с переводом. Или у АлексФильм перевод переводистее?pb.wtf



20-12-2017 14:23 Пращи и стрелы Скачать торрент  

Ясно. Спасибо. Закончат переводить, глянем чей лучше )pb.wtf





Последний раз редактировалось: JIokki (2017-12-21 13:55), всего редактировалось 1 раз

20-12-2017 14:28 Пращи и стрелы Скачать торрент  

JIokki писал(а):

Привет. А в чем фишка? Есть же все 3 сезона с переводом. Или у АлексФильм перевод переводистее?

наверное в том что там качество видео хуже и перевод одноголосый любительскийpb.wtf



08-01-2018 12:46 Пращи и стрелы Скачать торрент  

+5-6pb.wtf



    Дорогой пользователь! Огромная просьба, поблагодарите релизера, оцените раздачу и оставьте свои комментарий, если Вы скачали Пращи и стрелы через торрент бесплатно! Внесите свою лепту в развитие PiratBit!
    Комментировать посты могут только пользователи прошедшие не сложную регистрацию
    Показать сообщения:    

    Пращи и стрелы через торрент
    Скачать бесплатно Пращи и стрелы
    Пращи и стрелы скачать торрент
    Пращи и стрелы смотреть онлайн
    Cкачать фильм Пращи и стрелы бесплатно
    Пращи и стрелы скачать торрент в хорошем качестве
    Пращи и стрелы смотреть онлайн бесплатно в хорошем качестве


    Вы не можете начинать темы
    Вы не можете отвечать на сообщения
    Вы не можете редактировать свои сообщения
    Вы не можете удалять свои сообщения
    Вы не можете голосовать в опросах
    Вы не можете прикреплять файлы к сообщениям
    Вы можете скачивать файлы