Ссылка на приватное зеркало нашего сайта всего за 1$. Внимание количество ограничено!!!

2 сезон

iTunes

1 сезон

1

2 сезон

2 сезон

iTunes

1 сезон

RePack

30

Ultimate

ВАЖНО

ИГРА 18+

pack

RePack

MK11
pack

Забери бонус

RePack

jed

!!Акция!!

Alien_Rage

RePack

fifa19

RePack

Assassins Creed: Odyssey

RePack

NEED FOR SPEED™ PAYBACK

4 сезон

9 сезон

Бесстыжие 9 сезон

Все сериалы

все сериалы на PB.wtf

RePack

FAR CRY 5
  

Я - зомби / iZombie / Сезон: 3 / Серии: 1-13 из 13 (Майрзи Алмас, Роб Томас) [2017, ужасы, фантастика, драма, криминал, WEB-DLRip] MVO [NewStudio] pb.wtf

Я - зомби через торрент pb.wtf

Размер: 10.68 GB | Добавлен: 2 года 11 мес. назад | Торрент скачан:84 раза
Скачать  

18-12-2017 12:48 Я - зомби Скачать торрент  

Я - зомби / iZombieИнформация о фильме:

Название: Я - зомби (3 сезон)
Оригинальное название: iZombie
Год выпуска: 2017
Страна: США / DC Entertainment, Spondoolie Entertainment, Vertigo Productions, Warner Bros. Television
Жанр: ужасы, фантастика, драма, криминал
Продолжительность: ~ 00:43:00 серия
Перевод: Профессиональный многоголосый - NewStudio
Субтитры: отсутствуют
Примечание: Без рекламы!

Режиссер: Майрзи Алмас, Роб Томас

rating

В ролях:

Роуз МакАйвер, Малкольм Гудвин, Рахул Коли, Роберт Бакли, Дэвид Андерс, Элисон Мичалка, Брайс Ходжсон, Лиэнн Лэпп, Джессика Хэрмон, Андре Трикоте и др.

Описание:

В центре сюжета — студентка медицинского факультета Оливия «Лив» Мур, для которой последствия одной из вечеринок стали переломным моментом в жизни, превратившим её в зомби. Жизнерадостная, активная и пышущая здоровьем раньше, теперь Лив похожа на представителя готов — с бледной кожей, тёмными кругами вокруг глаз и почти белыми волосами. Она устраивается на работу в офис коронера, доктора Рави Чакрабарти, чтобы иметь доступ к мозгам, которые ей приходиться есть, чтобы поддерживать свою человеческую сущность. Однако с каждым съеденным ею мозгом она наследует воспоминания трупа. С помощью босса доктора Чакрабарти, узнавшего её секрет, и детектива полиции Клайва Бабино Лив способна разгадывать убийства тех людей, чей мозг она съела.

Информация о файле:

Качество: WEB-DLRip
Формат: AVI
Видео кодек: XviD
Аудио кодек: AC3

Видео: ~ 2000 kbps, 720x400 (16:9), 23.976 fps
Аудио#1: RUS: AC3, 48 KHz, 6 ch, 384 kbps
Аудио#2: ENG: AC3, 48 KHz, 6 ch, 384 kbps
скриншот  скриншот  скриншот  скриншот  скриншот  

Общее
Полное имя : D:\iZombie_s03.2017.web-dlrip_[teko]\s03e01_Heaven.Just.Got.a.Little.Bit.Smoother.avi
Формат : AVI
Формат/Информация : Audio Video Interleave
Размер файла : 836 Мбайт
Продолжительность : 42 м. 1 с.
Общий поток : 2782 Кбит/сек
Программа кодирования : VirtualDubMod 1.5.10.3 | www.virtualdub-fr.org || (build 2550/release)
Библиотека кодирования : VirtualDubMod build 2550/release

Видео
Идентификатор : 0
Формат : MPEG-4 Visual
Профиль формата : Advanced Simple@L5
Параметр BVOP формата : 2
Параметр QPel формата : Нет
Параметр GMC формата : Без точки перехода
Параметр матрицы формата : Выборочная
Идентификатор кодека : XVID
Идентификатор кодека/Подсказка : XviD
Продолжительность : 42 м. 1 с.
Битрейт : 2000 Кбит/сек
Ширина : 720 пикселей
Высота : 400 пикселей
Соотношение сторон : 16:9
Частота кадров : 23,976 (23976/1000) кадра/сек
Цветовое пространство : YUV
Субдискретизация насыщенности : 4:2:0
Битовая глубина : 8 бит
Тип развёртки : Прогрессивная
Метод сжатия : С потерями
Бит/(Пиксели*Кадры) : 0.290
Размер потока : 601 Мбайт (72%)
Библиотека кодирования : XviD 73

Аудио #1
Идентификатор : 1
Формат : AC-3
Формат/Информация : Audio Coding 3
Расширение режима : CM (complete main)
Параметр Endianness формата : Big
Идентификатор кодека : 2000
Продолжительность : 42 м. 1 с.
Вид битрейта : Постоянный
Битрейт : 384 Кбит/сек
Каналы : 6 каналов
Расположение каналов : Front: L C R, Side: L R, LFE
Частота : 48,0 КГц
Частота кадров : 31,250 кадров/сек (1536 spf)
Метод сжатия : С потерями
Размер потока : 115 Мбайт (14%)
Выравнивание : Разделение по промежуткам
Продолжительность промежутка : 42 мс. (1,00 видеокадр)
Время предзагрузки промежутка : 500 мс.

Аудио #2
Идентификатор : 2
Формат : AC-3
Формат/Информация : Audio Coding 3
Расширение режима : CM (complete main)
Параметр Endianness формата : Big
Идентификатор кодека : 2000
Продолжительность : 42 м. 1 с.
Вид битрейта : Постоянный
Битрейт : 384 Кбит/сек
Каналы : 6 каналов
Расположение каналов : Front: L C R, Side: L R, LFE
Частота : 48,0 КГц
Частота кадров : 31,250 кадров/сек (1536 spf)
Метод сжатия : С потерями
Размер потока : 115 Мбайт (14%)
Выравнивание : Разделение по промежуткам
Продолжительность промежутка : 42 мс. (1,00 видеокадр)
Время предзагрузки промежутка : 500 мс.

pb.wtf



Скачать Я - зомби через торрент http://i90.fastpic.ru/big/2017/0323/63/167e13ee24e3876dac67c3221de1f263.png Скачать фильм Я - зомби через торрент бесплантно в хорошем качестве Описание: В центре сюжета — студентка медицинского факультета Оливия «Лив» Мур, для которой последствия одной из вечеринок стали переломным ... 7.5 10 4
Торрент: Зарегистрирован [2017-12-18 12:48] · скачан: 84 раз
Статус: √ проверено
Размер: 10.68 GB
Как cкачать? Как скачать Я - зомби через торрент | qTorrent

% Раздел Тема Автор DL S | L
Зарубежные сериалы [ 10.39 GB ] Я – зомби / iZombie / Сезон: 3 / Серия 1-13 из 13 [2017 WEB-DLRip-AVC] MVO [BaibaKo] GEKADOL Скачать
1 | 0

28-11-2019 20:33  

Отключить всю рекламу на сайте

    Дорогой пользователь! Огромная просьба, поблагодарите релизера, оцените раздачу и оставьте свои комментарий, если Вы скачали Я - зомби через торрент бесплатно! Внесите свою лепту в развитие PiratBit!
    Комментировать посты могут только пользователи прошедшие не сложную регистрацию
    Показать сообщения:    

    Я - зомби через торрент
    Скачать бесплатно Я - зомби
    Я - зомби скачать торрент
    Я - зомби смотреть онлайн
    Cкачать фильм Я - зомби бесплатно
    Я - зомби скачать торрент в хорошем качестве
    Я - зомби смотреть онлайн бесплатно в хорошем качестве


    Вы не можете начинать темы
    Вы не можете отвечать на сообщения
    Вы не можете редактировать свои сообщения
    Вы не можете удалять свои сообщения
    Вы не можете голосовать в опросах
    Вы не можете прикреплять файлы к сообщениям
    Вы можете скачивать файлы