Мега распродажа FORZA HORIZON 4 ULTIMATE+ВСЕ DLC+ОНЛАЙН всего за 499р. 349 руб. (супер цена). Внимание количество ограничено!!!

Лицензия

30

iTunes

мы

iTunes

1

1 сезон

Чернобыль

1 сезон

Ральф против интернета

MVO

Покемон. Детектив Пикачу

8 сезон

Игра престолов

iTunes

1+1

ИГРА 18+

pack

ВАЖНО

!!Акция!!

Alien_RageХит недели

RePack

Resident Evil 21
pack

RePack

Metro:Exodus

!!Акция!!

Alien_Rage

RePack

fifa19

RePack

Assassins Creed: Odyssey

RePack

NEED FOR SPEED™ PAYBACK

3 сезон

9 сезон

Бесстыжие 9 сезон

Все сериалы

все сериалы на PB.wtf

RePack

FAR CRY 5
Ребята, катастрофически не хватает 2730р. для оплаты серверов за МАЙ (всвязи с блокировками трафик упал в 3 раза), 1-2р., выручайте.
  

Гранд тур / The Grand Tour / Сезон: 2 / Серии: 1-11 из 11 [2017, Автошоу, WEBRip] MVO [Jaskier] pb.wtf

Гранд тур через торрент pb.wtf

Размер: 8.58 GB | Добавлен: 1 год 3 мес. назад | Торрент скачан:26 раз
Скачать  

18-12-2017 13:14 Гранд тур Скачать торрент  

Гранд тур / The Grand TourИнформация о фильме:

✦ Название: Гранд тур
✦ Оригинальное название: The Grand Tour
✦ Год выпуска: 2017
✦ Страна: Великобритания
✦ Вид спорта: Автошоу
✦ Продолжительность: ~ 01:10:00 выпуск
✦ Комментарий: Профессиональный (многоголосый) - Jaskier
✦ Субтитры: отсутствуют
✦ Реклама: Присутствует звуковая (два раза в начале и конце по 8 сек.).

В ролях:

Джереми Кларксон, Ричард Хаммонд и Джэймс Мэй

Описание:

Предлагаем вашему вниманию долгожданный многими фанатами автомобилей проект с легендарными ведущими Джереми Кларксоном, Джеймом Мэйем и Ричардом Хаммондом. В центре внимания проекта оказываются автомобили со всего света. Ведущие отправляются в большое путешествие по миру, чтобы найти раритетные модели авто или же невероятные суперкары. В каждом новом городе будет снят очередной эпизод этого шоу, а ведущие проведут тест драйв местных автомобилей, рассказав о них кое-что по-настоящему интересное. На улице любителей "Топ Гира" огромный праздник - "Гранд Тур" вашему вниманию!

Информация о файле:

✦ Качество: WEBRip
✦ Формат: AVI
✦ Видео кодек: XviD
✦ Аудио кодек: MP3

✦ Видео: ~ 1400 kbps, 720x400, 23.976 fps
✦ Аудио#1:RU: mp3, 48.0 KHz, 2 ch, 128 kbps
✦ Аудио#2 EN: mp3, 48.0 KHz, 2 ch, 128 kbps


скриншот  скриншот  скриншот  

Общее
Полное имя : D:\The Grand Tour. Season 2 (WEBRip l 400p l Jaskier)\The.Grand.Tour.s02e01.WEBRip.Rus.Eng.Jaskier.avi
Формат : AVI
Формат/Информация : Audio Video Interleave
Размер файла : 850 Мбайт
Продолжительность : 1 ч. 10 м.
Общий поток : 1696 Кбит/сек
Программа кодирования : VirtualDubMod 1.5.10.3 | www.virtualdub-fr.org || (build 2550/release)
Библиотека кодирования : VirtualDubMod build 2550/release

Видео
Идентификатор : 0
Формат : MPEG-4 Visual
Профиль формата : Advanced Simple@L5
Параметр BVOP формата : 1
Параметр QPel формата : Нет
Параметр GMC формата : Без точки перехода
Параметр матрицы формата : Default (MPEG)
Идентификатор кодека : XVID
Идентификатор кодека/Подсказка : XviD
Продолжительность : 1 ч. 10 м.
Битрейт : 1362 Кбит/сек
Ширина : 720 пикселей
Высота : 400 пикселей
Соотношение сторон : 16:9
Частота кадров : 25,000 кадров/сек
Цветовое пространство : YUV
Субдискретизация насыщенности : 4:2:0
Битовая глубина : 8 бит
Тип развёртки : Прогрессивная
Метод сжатия : С потерями
Бит/(Пиксели*Кадры) : 0.189
Размер потока : 683 Мбайт (80%)
Библиотека кодирования : XviD 73

Аудио #1
Идентификатор : 1
Формат : MPEG Audio
Версия формата : Version 1
Профиль формата : Layer 3
Режим : Joint stereo
Расширение режима : MS Stereo
Идентификатор кодека : 55
Идентификатор кодека/Подсказка : MP3
Продолжительность : 1 ч. 10 м.
Вид битрейта : Постоянный
Битрейт : 128 Кбит/сек
Каналы : 2 канала
Частота : 48,0 КГц
Метод сжатия : С потерями
Размер потока : 64,2 Мбайт (8%)
Выравнивание : Соединение по промежуткам

Аудио #2
Идентификатор : 2
Формат : MPEG Audio
Версия формата : Version 1
Профиль формата : Layer 3
Режим : Joint stereo
Расширение режима : MS Stereo
Идентификатор кодека : 55
Идентификатор кодека/Подсказка : MP3
Продолжительность : 1 ч. 10 м.
Вид битрейта : Постоянный
Битрейт : 128 Кбит/сек
Каналы : 2 канала
Частота : 48,0 КГц
Метод сжатия : С потерями
Размер потока : 64,2 Мбайт (8%)
Выравнивание : Соединение по промежуткам

Когда раздача ведётся путём добавления новых серий, при каждом добавлении создётся новый торрент. Чтобы начать докачку новой серии, пользователям необходимо сделать следующее:
(1) остановить скачивание,
(2) удалить старый торрент у себя из клиента (старые серии удалять не надо),
(3) скачать новый торрент и запустить его у себя в клиенте вместо старого, при этом указать клиенту путь в старую папку, куда и должно происходить скачивание новых серий.
Ваш клиент при этом должен произвести хеширование (проверку) старой папки (если не производит сам - помогите ему сделать это), и будет докачивать только те серии, которых у вас ещё нет. Старые серии при этом не удаляются, а продолжают раздаваться!
Eсли вы уже удалили старые серии, то предотвратить повторную закачку старых серий можно, отжав галочку в соответсвующих местах при запуске нового торрента. По возможности, желательно не удалять старые серии как можно дольше, чтобы релизёр не столько продолжал раздавать старые серии, а смог сконцентрироваться на новых.
pb.wtf



Скачать Гранд тур через торрент http://s019.radikal.ru/i613/1712/e5/502acb8c0181.png Скачать фильм Гранд тур через торрент бесплантно в хорошем качестве Описание: Предлагаем вашему вниманию долгожданный многими фанатами автомобилей проект с легендарными ведущими Джереми Кларксоном, Джеймом ... 9.8 10 12
Торрент: Зарегистрирован [2018-02-19 10:43] · скачан: 26 раз
Статус: √ проверено
Размер: 8.58 GB
Как cкачать? Как скачать Гранд тур через торрент | qTorrent

% Раздел Тема Автор DL S | L
Автоспорт [ 139.01 GB ] Гранд тур / The Grand Tour / Сезон: 2 / Серии: 1-11 из 11 [2017 Автошоу UHD WEBRip 2160p] [HDR] MVO [AlexFilm] bober100 Скачать
1 | 0
Автоспорт [ 64.15 GB ] Гранд тур / The Grand Tour / Сезон: 2 / Серии: 1-11 из 11 [2017 Автошоу WEB-DL 1080p] 2xMVO [AlexFilm NewStudio] bober100 Скачать
2 | 0
Автоспорт [ 23.09 GB ] Гранд тур / The Grand Tour / Сезон: 2 / Серии: 1-11 из 11 [2017 Автошоу WEBRip 720p ] MVO [Jaskier] bober100 Скачать
1 | 0
Автоспорт [ 24.99 GB ] Гранд Тур / The Grand Tour / Сезон 2 / Серии 1-11 из 11 [2017. Авто-шоу WEBRip 720p] [MVO] killermax2013 Скачать
1 | 0
Автоспорт [ 8.3 GB ] Гранд Тур / The Grand Tour / Сезон 2 / Серии 1-11 из 11 [2017. Авто-шоу WEBRip] [MVO] killermax2013 Скачать
4 | 0
Автоспорт [ 60.98 GB ] Гранд тур / The Grand Tour / Сезон: 2 / Серии: 1-11 из 11 [2017 Автошоу WEBRip 1080p] MVO [Jaskier] bober100 Скачать
1 | 0


>> Регистрируемся здесь <<






Отзывы и комментарии о схеме читаем и пишем здесь: ---> Отзывы и комментарии о схеме

Новые благодарочки в телеграм довольных пользователей:
скриншот   скриншот   скриншот   скриншот   скриншот
    Дорогой пользователь! Огромная просьба, поблагодарите релизера, оцените раздачу и оставьте свои комментарий, если Вы скачали Гранд тур через торрент бесплатно! Внесите свою лепту в развитие PiratBit!
    Комментировать посты могут только пользователи прошедшие не сложную регистрацию
    Показать сообщения:    

    Гранд тур через торрент
    Скачать бесплатно Гранд тур
    Гранд тур скачать торрент
    Гранд тур смотреть онлайн
    Cкачать фильм Гранд тур бесплатно
    Гранд тур скачать торрент в хорошем качестве
    Гранд тур смотреть онлайн бесплатно в хорошем качестве


    Вы не можете начинать темы
    Вы не можете отвечать на сообщения
    Вы не можете редактировать свои сообщения
    Вы не можете удалять свои сообщения
    Вы не можете голосовать в опросах
    Вы не можете прикреплять файлы к сообщениям
    Вы можете скачивать файлы