Ссылка на приватное зеркало нашего сайта всего за 1$. Внимание количество ограничено!!!

2 сезон

iTunes

1 сезон

1

iTunes

iTunes

iTunes

1 сезон

RePack

30

ИГРА 18+

pack

ВАЖНО

!!Акция!!

Alien_RageХит недели

RePack

MK11
pack

Забери бонус

RePack

jed

!!Акция!!

Alien_Rage

RePack

fifa19

RePack

Assassins Creed: Odyssey

RePack

NEED FOR SPEED™ PAYBACK

4 сезон

9 сезон

Бесстыжие 9 сезон

Все сериалы

все сериалы на PB.wtf

RePack

FAR CRY 5
  

Позднее раскаяние / Серия 1-2 из 2) (Борис Рабей) [2017 , мелодрама, детектив, HDTV 1080p] Не требуется [Русский] pb.wtf

Позднее раскаяние через торрент pb.wtf

Размер: 9.12 GB | Добавлен: 2 года 10 мес. назад | Торрент скачан:45 раз
Скачать  

18-12-2017 14:58 Позднее раскаяние Скачать торрент  

Позднее раскаяние


Год выпуска: 2017

Страна: Россия
Жанр: мелодрама, детектив
Продолжительность: 01:29:35
Перевод: Не требуется [Русский]
Режиссер: Борис Рабей
В ролях:

Александра Власова (Оля), Евгений Токарев (Кирилл), Александр Пашутин (дед Оли), Анна Якунина (Ася, мать Оли), Олег Масленников-Войтов (отец Оли), Юлия Галкина, Артём Осипов, Александр Головин, Никита Салопин
Описание:
Оля - девушка из обеспеченной семьи, мать Кирилла - простая малярша. Молодых людей не смущает социальная разница, хотя родственники с обеих сторон заостряют на этом внимание. Особенно старается мать Оли - Ася, растившая дочь без отца.

Качество: HDTV 1080p by
Формат: MKV
Видео кодек: AVC
Аудио кодек: AC3
Видео: AVC, 1920x1080 (16:9), 7050 kbps, 25 fps, 0,136 bpp
Аудио: AC3 / 2.0 / 48 kHz / 192 kbps /
General
Unique ID : 171840833978198656340394210552018811239 (0x8147573D891D7EFE95A4FE40709AB967)
Complete name : E:\Pozdnee raskayanie .2017.HDTV 1080p.R.G.Generalfilm\Pozdnee raskayanie.s01.e01.2017.HDTV 1080p.by.White Smoke.R.G.Generalfilm.mkv
Format : Matroska
Format version : Version 4 / Version 2
File size : 4.52 GiB
Duration : 1 h 29 min
Overall bit rate mode : Constant
Overall bit rate : 7 224 kb/s
Movie name : Pozdnee raskayanie.s01.e01.2017.HDTV 1080p.by.White Smoke.R.G.Generalfilm.mkv
Encoded date : UTC 2017-12-18 14:01:33
Writing application : mkvmerge v6.8.0 ('Theme for Great Cities') 64bit built on Mar 2 2014 21:34:26
Writing library : libebml v1.3.0 + libmatroska v1.4.1

Video
ID : 1
Format : AVC
Format/Info : Advanced Video Codec
Format profile : High@L4.1
Format settings, CABAC : Yes
Format settings, ReFrames : 3 frames
Codec ID : V_MPEG4/ISO/AVC
Duration : 1 h 29 min
Bit rate mode : Constant
Bit rate : 7 051 kb/s
Width : 1 920 pixels
Height : 1 080 pixels
Display aspect ratio : 16:9
Frame rate mode : Constant
Frame rate : 25.000 FPS
Standard : PAL
Color space : YUV
Chroma subsampling : 4:2:0
Bit depth : 8 bits
Scan type : Progressive
Bits/(Pixel*Frame) : 0.136
Stream size : 4.31 GiB (95%)
Default : Yes
Forced : No
Color range : Limited
Color primaries : BT.709
Transfer characteristics : BT.709
Matrix coefficients : BT.709

Audio
ID : 2
Format : AC-3
Format/Info : Audio Coding 3
Mode extension : CM (complete main)
Format settings, Endianness : Big
Codec ID : A_AC3
Duration : 1 h 29 min
Bit rate mode : Constant
Bit rate : 192 kb/s
Channel(s) : 2 channels
Channel positions : Front: L R
Sampling rate : 48.0 kHz
Frame rate : 31.250 FPS (1536 spf)
Compression mode : Lossy
Stream size : 123 MiB (3%)
Default : Yes
Forced : No
pb.wtf



Скачать Позднее раскаяние через торрент http://i6.imageban.ru/out/2017/12/18/0bd8d33ac9faf226273cc5d2dfcca72d.jpg Скачать фильм Позднее раскаяние через торрент бесплантно в хорошем качестве Описание: Оля - девушка из обеспеченной семьи, мать Кирилла - простая малярша. Молодых людей не смущает социальная разница, хотя ... 9 10 1
Info! Золотая раздача, скачанное не засчитывается.
Торрент: Зарегистрирован [2017-12-18 14:58] · скачан: 45 раз
Статус: √ проверено
Размер: 9.12 GB
Как cкачать? Как скачать Позднее раскаяние через торрент | qTorrent

28-11-2019 20:33  

Отключить всю рекламу на сайте

    Дорогой пользователь! Огромная просьба, поблагодарите релизера, оцените раздачу и оставьте свои комментарий, если Вы скачали Позднее раскаяние через торрент бесплатно! Внесите свою лепту в развитие PiratBit!
    Комментировать посты могут только пользователи прошедшие не сложную регистрацию
    Показать сообщения:    

    Позднее раскаяние через торрент
    Скачать бесплатно Позднее раскаяние
    Позднее раскаяние скачать торрент
    Позднее раскаяние смотреть онлайн
    Cкачать фильм Позднее раскаяние бесплатно
    Позднее раскаяние скачать торрент в хорошем качестве
    Позднее раскаяние смотреть онлайн бесплатно в хорошем качестве


    Вы не можете начинать темы
    Вы не можете отвечать на сообщения
    Вы не можете редактировать свои сообщения
    Вы не можете удалять свои сообщения
    Вы не можете голосовать в опросах
    Вы не можете прикреплять файлы к сообщениям
    Вы можете скачивать файлы