Ссылка на приватное зеркало нашего сайта всего за 1$. Внимание количество ограничено!!!

2 сезон

iTunes

1 сезон

1

2 сезон

2 сезон

iTunes

1 сезон

RePack

30

Ultimate

ВАЖНО

ИГРА 18+

pack

RePack

MK11
pack

Забери бонус

RePack

jed

!!Акция!!

Alien_Rage

RePack

fifa19

RePack

Assassins Creed: Odyssey

RePack

NEED FOR SPEED™ PAYBACK

4 сезон

9 сезон

Бесстыжие 9 сезон

Все сериалы

все сериалы на PB.wtf

RePack

FAR CRY 5
  

Тоннель / Туннель / The Tunnel / Сезон: 3 / Серии 1-6 из 6 (Томас Винсент / Thomas Vincent, Хетти Макдональд / Hettie Macdonald, Доминик Молль / Dominik Moll) [2017, Великобритания, Франция, триллер, драма, криминал, WEB-DLRip] MVO [BaibaKo] pb.wtf

Тоннель через торрент pb.wtf

Качают: 1 [ 0 KB/s ]
Размер: 3.29 GB | Добавлен: 2 года 7 мес. назад | Торрент скачан:10 раз
Скачать  

19-12-2017 05:12 Тоннель Скачать торрент  

Тоннель / Туннель / The Tunnel
«Who is TT?»


  • Год выпуска: 2017
  • Страна: Великобритания, Франция
  • Жанр: триллер, драма, криминал, детектив
  • Продолжительность: ~ 00:46:00 (Серия)
  • Перевод: Профессиональный многоголосый [BaibaKo]
  • Режиссер: Томас Винсент / Thomas Vincent, Хетти Макдональд / Hettie Macdonald, Доминик Молль / Dominik Moll
  • В ролях:

    Стивен Диллэйн (Karl Roebuck), Клеманс Поэзи (Elise Wassermann), Сигрид Буази (Cécile Cabrillac), Тоби Бакаре (Chuks Akinade), Джек Лауден (Adam Roebuck), Энджел Колби (Laura Roebuck), Джеймс Фрейн (John Sumner), Седрик Виейра (Philippe Viot), Тибо де Монталембер (Olivier Pujol), Том Бейтман (Danny Hillier), Джозеф Моул (Stephen Beaumont), Жанна Балибар (Charlotte Joubert)


  • Британско-французская версия скандинавского хита "Мост". Ужасающая находка в Евротоннеле - точно на границе между Францией и Великобританией обнаружены части тел сразу двух жертв - известной французской политической деятельницы и британской проститутки. На место преступления прибывают детективы из обеих стран — французский инспектор Элиза Вассерман и англичанин Карл Робак. Как и в оригинальной скандинавской версии, полицейских ждёт шокирующее открытие, ведущее героев в непростой мир человеческих взаимоотношений, интриг и страстей.
  • Рейтинг:

    rating
  • Качество: WEB-DLRip
  • Формат: :AVI
  • Видео кодек: XviD
  • Аудио кодек: MP3
  • Видео: 1439 Кбит/сек, 720*400 (16:9), в 25,000 кадров/сек, MPEG-4 Visual (XviD)
  • Аудио №1: русский 192 Кбит/сек, 48,0 КГц, 2 канала, MPEG Audio (MP3) |[BaibaKo]|
  • Релиз от: GEKADOL

    Внимание! Раздача ведётся путём добавления новых серий; при каждом добавлении создаётся новый торрент. Чтобы начать докачку новой серии, пользователям необходимо сделать следующее:
    (1) остановить скачивание,
    (2) удалить старый торрент у себя из клиента (старые серии удалять не надо),
    (3) скачать новый торрент и запустить его у себя в клиенте вместо старого, при этом указать клиенту путь в старую папку куда и должно происходить скачивание новых серий.
    Ваш клиент при этом должен произвести хеширование (проверку) старой папки (если не производит сам - помогите ему сделать это), и будет докачивать только те серии которых у вас ещё нет. Старые серии при этом не удаляются, а продолжают раздаваться!
    Eсли вы уже удалили старые серии, то предотвратить повторную закачку старых серий можно, отжав галочку в соответствующих местах при запуске нового торрента. По возможности, желательно не удалять старые серии как можно дольше чтобы релизёр не столько продолжал раздавать старые серии, а смог сконцентрироваться на новых.
    Общее
    Полное имя : F:\Тоннель (The Tunnel) XviD\Tunnel.s03e06.WEB-DLRip.XviD.Rus.BaibaKo.avi
    Формат : AVI
    Формат/Информация : Audio Video Interleave
    Размер файла : 584 Мбайт
    Продолжительность : 49 м. 43 с.
    Общий поток : 1641 Кбит/сек

    Видео
    Идентификатор : 0
    Формат : MPEG-4 Visual
    Профиль формата : Advanced Simple@L5
    Настройки формата : BVOP2
    Параметр BVOP формата : 2
    Параметр QPel формата : Нет
    Параметр GMC формата : Без точки перехода
    Параметр матрицы формата : Default (H.263)
    Идентификатор кодека : XVID
    Идентификатор кодека/Подсказка : XviD
    Продолжительность : 49 м. 43 с.
    Битрейт : 1439 Кбит/сек
    Ширина : 720 пикселей
    Высота : 400 пикселей
    Соотношение сторон : 16:9
    Частота кадров : 25,000 кадров/сек
    Цветовое пространство : YUV
    Субдискретизация насыщенности : 4:2:0
    Битовая глубина : 8 бит
    Тип развёртки : Прогрессивная
    Метод сжатия : С потерями
    Бит/(Пиксели*Кадры) : 0.200
    Размер потока : 512 Мбайт (88%)
    Библиотека кодирования : XviD 65

    Аудио
    Идентификатор : 1
    Формат : MPEG Audio
    Версия формата : Version 1
    Профиль формата : Layer 3
    Настройки формата : Joint stereo / MS Stereo
    Идентификатор кодека : 55
    Идентификатор кодека/Подсказка : MP3
    Продолжительность : 49 м. 43 с.
    Вид битрейта : Постоянный
    Битрейт : 192 Кбит/сек
    Каналы : 2 канала
    Частота : 48,0 КГц
    Метод сжатия : С потерями
    Размер потока : 68,3 Мбайт (12%)
    Выравнивание : Разделение по промежуткам
    Продолжительность промежутка : 40 мс. (1,00 видеокадр)
    Время предзагрузки промежутка : 500 мс.
    Библиотека кодирования : LAME3.99†ЪrK¤‘±е±™т



    Скриншоты:
    скриншот   скриншот   скриншот   скриншот   скриншот   скриншот   скриншот  
    скриншот  

    Раздача ведётся путём добавления новых серий. Добавлена 4-6 серия (03.04.2018).Просьба перекачать торрент файл.

    pb.wtf



  • Скачать Тоннель через торрент http://pic1.kartinco.top/images/11/isyvq.jpg Скачать фильм Тоннель через торрент бесплантно в хорошем качестве qw.png Британско-французская скандинавского хита "Мост". Ужасающая находка в Евротоннеле - точно на границе между Францией и ... 7.3 10 4
    Info! Золотая раздача, скачанное не засчитывается.
    Торрент: Зарегистрирован [2018-04-03 00:33] · скачан: 10 раз
    Статус: √ проверено
    Размер: 3.29 GB
    Как cкачать? Как скачать Тоннель через торрент | qTorrent

    % Раздел Тема Автор DL S | L
    Зарубежные сериалы [ 4.66 GB ] Тоннель / Туннель / The Tunnel / Сезон: 3 / Серии 1-3 из 6 [2017 HDTVRip 720p] MVO [BaibaKo] GEKADOL Скачать
    1 | 0


    Последний раз редактировалось: GEKADOL (2018-04-03 00:33), всего редактировалось 2 раз(а)

    28-11-2019 20:33  

    Отключить всю рекламу на сайте

    11-01-2018 10:39 Тоннель Скачать торрент  

    трейлер капец....pb.wtf



    23-01-2018 18:14 Тоннель Скачать торрент  

    dangerless писал(а):

    трейлер капец....

    pb.wtf



      Дорогой пользователь! Огромная просьба, поблагодарите релизера, оцените раздачу и оставьте свои комментарий, если Вы скачали Тоннель через торрент бесплатно! Внесите свою лепту в развитие PiratBit!
      Комментировать посты могут только пользователи прошедшие не сложную регистрацию
      Показать сообщения:    

      Тоннель через торрент
      Скачать бесплатно Тоннель
      Тоннель скачать торрент
      Тоннель смотреть онлайн
      Cкачать фильм Тоннель бесплатно
      Тоннель скачать торрент в хорошем качестве
      Тоннель смотреть онлайн бесплатно в хорошем качестве


      Вы не можете начинать темы
      Вы не можете отвечать на сообщения
      Вы не можете редактировать свои сообщения
      Вы не можете удалять свои сообщения
      Вы не можете голосовать в опросах
      Вы не можете прикреплять файлы к сообщениям
      Вы можете скачивать файлы