Ссылка на приватное зеркало нашего сайта всего за 1$. Внимание количество ограничено!!!

2 сезон

iTunes

1 сезон

1

2 сезон

2 сезон

iTunes

1 сезон

RePack

30

Ultimate

ВАЖНО

ИГРА 18+

pack

RePack

MK11
pack

Забери бонус

RePack

jed

!!Акция!!

Alien_Rage

RePack

fifa19

RePack

Assassins Creed: Odyssey

RePack

NEED FOR SPEED™ PAYBACK

4 сезон

9 сезон

Бесстыжие 9 сезон

Все сериалы

все сериалы на PB.wtf

RePack

FAR CRY 5
  

Эль Чапо / El Chapo / Сезон 2 / Серии 1-12 из 12 (Эрнесто Контрерас, Хосе Мануэль Кравиотто) [2017, Драма, криминал, биография, WEBRip] MVO [NewStudio] pb.wtf

Эль Чапо через торрент pb.wtf

Размер: 6.74 GB | Добавлен: 2 года 11 мес. назад | Торрент скачан:219 раз
Скачать  

19-12-2017 06:19 Эль Чапо Скачать торрент  

Эль Чапо / El ChapoГод выпуска: 2017
Страна: США
Жанр: Драма, криминал, биография
Продолжительность: ~ 00:45:00
Перевод: Профессиональный многоголосый - NewStudio
Субтитры: отсутствуют

Режиссер: Эрнесто Контрерас, Хосе Мануэль Кравиотто

rating

В ролях:

Марко Де Ла О, Валентина Акоста, Алехандро Агилар, Хуан Карлос Олива, Родриго Абд, Жюльетта Пардо, Умберто Бусто, Эрнан Ромо, Абрил Шрайбер

Описание:

История жизни известного наркобарона Эль Чапо с момента начала его карьеры в в 1980, когда он начал работать на картель Гвадалахары, который долгое время скрывался от правосудия. В сериале «Эль Чапо» рассказывается о жизни известного преступника, который много лет избегал наказания, потом был пойман и сумел сбежать из тюрьмы. Наркобарону предъявляли обвинения по многочисленным статьям уголовного кодекса, в том числе он проходил подозреваемым по делам об убийстве и похищении людей.

Качество: WEBRip
Формат: AVI
Видео кодек: XviD
Аудио кодек: MP3

Видео: XviD, ~ 1600 Кбит/с, 720х400
Аудио#1: Русский (MP3, 2 ch, 128 Кбит/с)
Аудио#2: английский (MP3, 2 ch, 128 Кбит/с)
скриншот  скриншот  скриншот  скриншот  скриншот  скриншот  

Общее
Полное имя : D:\El Chapo (Season 02) Newstudio\El.Chapo.s02e01.WEBDLRip.NewStudio.TV.avi
Формат : AVI
Формат/Информация : Audio Video Interleave
Размер файла : 698 Мбайт
Продолжительность : 52 м. 58 с.
Общий поток : 1843 Кбит/сек
Программа кодирования : VirtualDubMod 1.5.10.2 (build 2540/release)
Библиотека кодирования : VirtualDubMod build 2540/release

Видео
Идентификатор : 0
Формат : MPEG-4 Visual
Профиль формата : Advanced Simple@L5
Параметр BVOP формата : 2
Параметр QPel формата : Да
Параметр GMC формата : Без точки перехода
Параметр матрицы формата : Default (MPEG)
Режим смешивания : Сжатый битовый поток
Идентификатор кодека : XVID
Идентификатор кодека/Подсказка : XviD
Продолжительность : 52 м. 58 с.
Битрейт : 1570 Кбит/сек
Ширина : 720 пикселей
Высота : 400 пикселей
Соотношение сторон : 16:9
Частота кадров : 29,970 (29970/1000) кадров/сек
Цветовое пространство : YUV
Субдискретизация насыщенности : 4:2:0
Битовая глубина : 8 бит
Тип развёртки : Прогрессивная
Метод сжатия : С потерями
Бит/(Пиксели*Кадры) : 0.182
Размер потока : 595 Мбайт (85%)
Библиотека кодирования : XviD 73

Аудио #1
Идентификатор : 1
Формат : MPEG Audio
Версия формата : Version 1
Профиль формата : Layer 3
Режим : Joint stereo
Расширение режима : MS Stereo
Идентификатор кодека : 55
Идентификатор кодека/Подсказка : MP3
Продолжительность : 52 м. 58 с.
Вид битрейта : Постоянный
Битрейт : 128 Кбит/сек
Каналы : 2 канала
Частота : 48,0 КГц
Метод сжатия : С потерями
Размер потока : 48,5 Мбайт (7%)
Выравнивание : Соединение по промежуткам
Продолжительность промежутка : 33 мс. (1,00 видеокадр)
Время предзагрузки промежутка : 504 мс.

Аудио #2
Идентификатор : 2
Формат : MPEG Audio
Версия формата : Version 1
Профиль формата : Layer 3
Режим : Joint stereo
Идентификатор кодека : 55
Идентификатор кодека/Подсказка : MP3
Продолжительность : 52 м. 58 с.
Вид битрейта : Постоянный
Битрейт : 128 Кбит/сек
Каналы : 2 канала
Частота : 48,0 КГц
Метод сжатия : С потерями
Размер потока : 48,5 Мбайт (7%)
Выравнивание : Соединение по промежуткам
Продолжительность промежутка : 33 мс. (1,00 видеокадр)
Время предзагрузки промежутка : 504 мс.
Библиотека кодирования : LAME3.99r
Настройки программы : -m j -V 4 -q 2 -lowpass 17 -b 128

pb.wtf



Скачать Эль Чапо через торрент http://s019.radikal.ru/i615/1712/6b/b29f149d2a8c.png Скачать фильм Эль Чапо через торрент бесплантно в хорошем качестве Описание: История жизни известного наркобарона Эль Чапо с момента начала его карьеры в в 1980, когда он начал работать на картель ... 10 10 8
Торрент: Зарегистрирован [2017-12-19 06:19] · скачан: 219 раз
Статус: √ проверено
Размер: 6.74 GB
Как cкачать? Как скачать Эль Чапо через торрент | qTorrent

% Раздел Тема Автор DL S | L
Зарубежные сериалы [ 17.71 GB ] Эль Чапо / El Chapo / Сезон: 2 / Серии 1-12 из 12 [2017 биография WEBDL-Rip 720p] MVO [NewStudio] GEKADOL Скачать
1 | 0

28-11-2019 20:33  

Отключить всю рекламу на сайте

    Дорогой пользователь! Огромная просьба, поблагодарите релизера, оцените раздачу и оставьте свои комментарий, если Вы скачали Эль Чапо через торрент бесплатно! Внесите свою лепту в развитие PiratBit!
    Комментировать посты могут только пользователи прошедшие не сложную регистрацию
    Показать сообщения:    

    Эль Чапо через торрент
    Скачать бесплатно Эль Чапо
    Эль Чапо скачать торрент
    Эль Чапо смотреть онлайн
    Cкачать фильм Эль Чапо бесплатно
    Эль Чапо скачать торрент в хорошем качестве
    Эль Чапо смотреть онлайн бесплатно в хорошем качестве


    Вы не можете начинать темы
    Вы не можете отвечать на сообщения
    Вы не можете редактировать свои сообщения
    Вы не можете удалять свои сообщения
    Вы не можете голосовать в опросах
    Вы не можете прикреплять файлы к сообщениям
    Вы можете скачивать файлы