Ссылка на приватное зеркало нашего сайта всего за 1$. Внимание количество ограничено!!!

2 сезон

iTunes

1 сезон

1

iTunes

iTunes

iTunes

1 сезон

RePack

30

ИГРА 18+

pack

ВАЖНО

!!Акция!!

Alien_RageХит недели

RePack

MK11
pack

Забери бонус

RePack

jed

!!Акция!!

Alien_Rage

RePack

fifa19

RePack

Assassins Creed: Odyssey

RePack

NEED FOR SPEED™ PAYBACK

4 сезон

9 сезон

Бесстыжие 9 сезон

Все сериалы

все сериалы на PB.wtf

RePack

FAR CRY 5
  

Бешеный Пёс и Глори / Mad Dog and Glory (Джон МакНотон) [1993, драма, мелодрама, комедия, криминал, BDRip 1080p by msltel] 2 x MVO, DVO, AVO pb.wtf

Бешеный Пёс и Глори через торрент pb.wtf

Размер: 13.68 GB | Добавлен: 2 года 10 мес. назад | Торрент скачан:31 раз
Скачать  

19-12-2017 06:36 Бешеный Пёс и Глори Скачать торрент  

Название: Бешеный Пёс и Глори
Оригинальное название: Mad Dog and Glory
Год выпуска: 1993
Страна: США
Жанр: драма, мелодрама, комедия, криминал
Продолжительность: 01:36:49
Перевод: профессиональный многоголосый, профессиональный двухголосый, авторский

Режиссер: Джон МакНотон
В ролях: Роберт Де Ниро, Ума Турман, Билл Мюррей, Дэвид Карузо, Майк Старр, Том Таулз, Кэти Бэйкер, Даг Хара, Ивэн Лайонел, Дерек Аннансиэйшн, Энтони Канната, Джек Уоллес, Ричард Белзер, Чак Порелло, Брюс Чаркоу, Ричард Прайс, Джон Полс, Паула Киллен, Сьюзи Брэк, Фред Скилло, Эрик Янг, Уильям Кинг, Кевин Хёрли

О фильме: К ужасу полицейского фотографа Уэйна, совершенно не умеющего драться и пытающегося избегать любых конфликтных ситуаций и опасностей, он неожиданно оказывается в центре ограбления магазина. Чудом обезвредив преступника, Уэйн выясняет, что случайно спас жизнь боссу местной мафии Франку Мило, который, в качестве благодарности, присылает к нему девушку Глорию.Фильм - романтическая комедия о непростых взаимоотношениях Уэйна и Глории, перерастающих в прекрасное и возвышенное чувство. Чтобы защитить свою любовь, робкому и безобидному Уэйну нужно будет, наконец-то, проявить мужество и характер...



Качество: BDRip 1080p
Формат: MKV
Видео: MPEG-4 AVC, 15.3 Mбит/с, 1920х1040, 23.976 кадр/с
Аудио 1: русский, DTS, 1509 kbps, 2 ch [профессиональный многоголосый]
Аудио 2: русский, AC3, 192 kbps, 2 ch [профессиональный многоголосый, ОРТ]
Аудио 3: русский, AC3, 192 kbps, 2 ch [профессиональный двухголосый, Премьер видео]
Аудио 4: русский, DTS, 1509 kbps, 2 ch [авторский, Андрей Гаврилов]
Аудио 5: английский, DTS, 1509 kbps, 2 ch, 48 kHz [оригинал]
Субтитры: английские
Неименованные главы/чаптеры.
Общее
Уникальный идентификатор : 194730250009257291744107441352909889947 (0x927FAE94BD4DAB6D889DEF7B2DE1A19B)
Полное имя : D:\Video\Бешеный Пёс и Глори.1993,BDRip.1080p by msltel.mkv
Формат : Matroska
Версия формата : Version 4 / Version 2
Размер файла : 13,7 Гбайт
Продолжительность : 1 ч. 36 м.
Общий поток : 20,2 Мбит/сек
Название фильма : Rip by msltel
Дата кодирования : UTC 2017-12-19 03:11:05
Программа кодирования : mkvmerge v8.2.0 ('World of Adventure') 64bit
Библиотека кодирования : libebml v1.3.1 + libmatroska v1.4.2

Видео
Идентификатор : 1
Формат : AVC
Формат/Информация : Advanced Video Codec
Профиль формата : High@L4.1
Настройки формата : CABAC / 4 Ref Frames
Параметр CABAC формата : Да
Параметр RefFrames формата : 4 кадра
Идентификатор кодека : V_MPEG4/ISO/AVC
Продолжительность : 1 ч. 36 м.
Битрейт : 15,3 Мбит/сек
Ширина : 1920 пикселей
Высота : 1040 пикселей
Соотношение сторон : 1,85:1
Режим частоты кадров : Постоянный
Частота кадров : 23,976 (24000/1001) кадра/сек
Цветовое пространство : YUV
Субдискретизация насыщенности : 4:2:0
Битовая глубина : 8 бит
Тип развёртки : Прогрессивная
Бит/(Пиксели*Кадры) : 0.320
Размер потока : 10,4 Гбайт (76%)
Библиотека кодирования : x264 core 146 r2538 121396c
Настройки программы : cabac=1 / ref=4 / deblock=1:-3:-2 / analyse=0x3:0x113 / me=umh / subme=11 / psy=1 / psy_rd=1.00:0.15 / mixed_ref=1 / me_range=32 / chroma_me=1 / trellis=2 / 8x8dct=1 / cqm=0 / deadzone=21,11 / fast_pskip=0 / chroma_qp_offset=-3 / threads=6 / lookahead_threads=1 / sliced_threads=0 / nr=0 / decimate=1 / interlaced=0 / bluray_compat=0 / constrained_intra=0 / bframes=12 / b_pyramid=2 / b_adapt=2 / b_bias=0 / direct=1 / weightb=1 / open_gop=0 / weightp=2 / keyint=230 / keyint_min=23 / scenecut=40 / intra_refresh=0 / rc_lookahead=40 / rc=crf / mbtree=0 / crf=19.1 / qcomp=0.60 / qpmin=0 / qpmax=69 / qpstep=4 / vbv_maxrate=62500 / vbv_bufsize=78125 / crf_max=0.0 / nal_hrd=none / filler=0 / ip_ratio=1.40 / pb_ratio=1.30 / aq=1:1.00
Язык : English
Default : Да
Forced : Нет

Аудио #1
Идентификатор : 2
Формат : DTS
Формат/Информация : Digital Theater Systems
Идентификатор кодека : A_DTS
Продолжительность : 1 ч. 36 м.
Вид битрейта : Постоянный
Битрейт : 1509 Кбит/сек
Каналы : 2 канала
Расположение каналов : Front: L R
Частота : 48,0 КГц
Частота кадров : 93,750 кадра/сек (512 SPF)
Битовая глубина : 16 бит
Метод сжатия : С потерями
Размер потока : 1,02 Гбайт (7%)
Заголовок : MVO
Язык : Russian
Default : Да
Forced : Нет

Аудио #2
Идентификатор : 3
Формат : AC-3
Формат/Информация : Audio Coding 3
Идентификатор кодека : A_AC3
Продолжительность : 1 ч. 36 м.
Вид битрейта : Постоянный
Битрейт : 192 Кбит/сек
Каналы : 2 канала
Расположение каналов : Front: L R
Частота : 48,0 КГц
Частота кадров : 31,250 кадров/сек (1536 SPF)
Битовая глубина : 16 бит
Метод сжатия : С потерями
Размер потока : 133 Мбайт (1%)
Заголовок : MVO.OPT
Язык : Russian
ServiceKind/String : Complete Main
Default : Нет
Forced : Нет

Аудио #3
Идентификатор : 4
Формат : AC-3
Формат/Информация : Audio Coding 3
Идентификатор кодека : A_AC3
Продолжительность : 1 ч. 36 м.
Вид битрейта : Постоянный
Битрейт : 192 Кбит/сек
Каналы : 2 канала
Расположение каналов : Front: L R
Частота : 48,0 КГц
Частота кадров : 31,250 кадров/сек (1536 SPF)
Битовая глубина : 16 бит
Метод сжатия : С потерями
Размер потока : 133 Мбайт (1%)
Заголовок : DVO.Премьер видео
Язык : Russian
ServiceKind/String : Complete Main
Default : Нет
Forced : Нет

Аудио #4
Идентификатор : 5
Формат : DTS
Формат/Информация : Digital Theater Systems
Идентификатор кодека : A_DTS
Продолжительность : 1 ч. 36 м.
Вид битрейта : Постоянный
Битрейт : 1509 Кбит/сек
Каналы : 2 канала
Расположение каналов : Front: L R
Частота : 48,0 КГц
Частота кадров : 93,750 кадра/сек (512 SPF)
Битовая глубина : 16 бит
Метод сжатия : С потерями
Размер потока : 1,02 Гбайт (7%)
Заголовок : Андрей Гаврилов
Язык : Russian
Default : Нет
Forced : Нет

Аудио #5
Идентификатор : 6
Формат : DTS
Формат/Информация : Digital Theater Systems
Идентификатор кодека : A_DTS
Продолжительность : 1 ч. 36 м.
Вид битрейта : Постоянный
Битрейт : 1509 Кбит/сек
Каналы : 2 канала
Расположение каналов : Front: L R
Частота : 48,0 КГц
Частота кадров : 93,750 кадра/сек (512 SPF)
Битовая глубина : 16 бит
Метод сжатия : С потерями
Размер потока : 1,02 Гбайт (7%)
Заголовок : original
Язык : English
Default : Нет
Forced : Нет

Текст
Идентификатор : 7
Формат : UTF-8
Идентификатор кодека : S_TEXT/UTF8
Идентификатор кодека/Информация : UTF-8 Plain Text
Продолжительность : 1 ч. 30 м.
Битрейт : 50 бит/сек
ElementCount : 1083
Размер потока : 33,7 Кбайт (0%)
Заголовок : английские
Язык : English
Default : Нет
Forced : Нет

Меню
00:00:00.000 : :Chapter 01
00:06:24.299 : :Chapter 02
00:13:54.916 : :Chapter 03
00:22:14.040 : :Chapter 04
00:31:20.044 : :Chapter 05
00:39:51.806 : :Chapter 06
00:48:27.652 : :Chapter 07
00:54:52.163 : :Chapter 08
01:00:59.447 : :Chapter 09
01:08:08.166 : :Chapter 10
01:15:11.590 : :Chapter 11
01:24:17.010 : :Chapter 12
01:36:49.386 : :Chapter 13
pb.wtf



Скачать Бешеный Пёс и Глори через торрент http://s018.radikal.ru/i507/1712/9d/562bb5cfd3f7.jpg Скачать фильм Бешеный Пёс и Глори через торрент бесплантно в хорошем качестве О фильме: К ужасу полицейского фотографа Уэйна, совершенно не умеющего драться и пытающегося избегать любых конфликтных ситуаций и ... 10 10 3
Info! Золотая раздача, скачанное не засчитывается.
Торрент: Зарегистрирован [2017-12-19 06:36] · скачан: 31 раз
Статус: √ проверено
Размер: 13.68 GB
Как cкачать? Как скачать Бешеный Пёс и Глори через торрент | qTorrent

% Раздел Тема Автор DL S | L
Фильмы [HD 720p, 1080p] (Хороший звук DUB, MVO) [ 4.68 GB ] Бешеный Пёс и Глори / Mad Dog and Glory [1993 BDRip 720p by msltel] 2 x MVO DVO AVO msltel Скачать
1 | 0

28-11-2019 20:33  

Отключить всю рекламу на сайте

    Дорогой пользователь! Огромная просьба, поблагодарите релизера, оцените раздачу и оставьте свои комментарий, если Вы скачали Бешеный Пёс и Глори через торрент бесплатно! Внесите свою лепту в развитие PiratBit!
    Комментировать посты могут только пользователи прошедшие не сложную регистрацию
    Показать сообщения:    

    Бешеный Пёс и Глори через торрент
    Скачать бесплатно Бешеный Пёс и Глори
    Бешеный Пёс и Глори скачать торрент
    Бешеный Пёс и Глори смотреть онлайн
    Cкачать фильм Бешеный Пёс и Глори бесплатно
    Бешеный Пёс и Глори скачать торрент в хорошем качестве
    Бешеный Пёс и Глори смотреть онлайн бесплатно в хорошем качестве


    Вы не можете начинать темы
    Вы не можете отвечать на сообщения
    Вы не можете редактировать свои сообщения
    Вы не можете удалять свои сообщения
    Вы не можете голосовать в опросах
    Вы не можете прикреплять файлы к сообщениям
    Вы можете скачивать файлы