Ссылка на приватное зеркало нашего сайта всего за 1$. Внимание количество ограничено!!!

2 сезон

iTunes

1 сезон

1

2 сезон

2 сезон

iTunes

1 сезон

RePack

30

Ultimate

ВАЖНО

ИГРА 18+

pack

RePack

MK11
pack

Забери бонус

RePack

jed

!!Акция!!

Alien_Rage

RePack

fifa19

RePack

Assassins Creed: Odyssey

RePack

NEED FOR SPEED™ PAYBACK

4 сезон

9 сезон

Бесстыжие 9 сезон

Все сериалы

все сериалы на PB.wtf

RePack

FAR CRY 5
  

Каратель / The Punisher / Сезон: 1 / Серии: 1-13 из 13 (Энди Годдард, Марк Йобст, Кари Скогланд) [2017, фантастика, боевик, триллер, драма, криминал, приключения, WEBRip 720p] DVO [Кубик в Кубе] pb.wtf

Каратель через торрент pb.wtf

Размер: 39.84 GB | Добавлен: 2 года 11 мес. назад | Торрент скачан:67 раз
Скачать  

20-12-2017 07:05 Каратель Скачать торрент  

Каратель / The PunisherИнформация о фильме:

Название: Каратель
Оригинальное название: The Punisher
Год выпуска: 2017 (1 сезон)
Страна: США / ABC Studios, Disney-ABC Domestic Television, Marvel Entertainment
Жанр: фантастика, боевик, триллер, драма, криминал, приключения
Продолжительность: ~ 00:50:00
Перевод: Профессиональный двухголосый - Кубик в Кубе
Субтитры: Русские (SFI и FOCS), английские (SDH)
Примечание: Без рекламы!

Режиссер: Энди Годдард, Марк Йобст, Кари Скогланд

rating

В ролях:

Бен Барнс, Джон Бернтал, Джейсон Р. Мур, Эбон Мосс-Бакрак, Майкл Натансон, Джейми Рэй Ньюман, Эмбер Роуз Рева, Пол Шульц, Даниэль Уэббер, Дебора Энн Уолл

Описание:

После того, как семья Фрэнка Касла была убита во время перестрелки нескольких банд Нью-Йорка, он решает отомстить и начинает охоту на преступников города. В преступном мире он становится известен как Каратель.

Информация о файле:

Качество: WEBRip 720p
Формат: MKV
Видео кодек: H.264
Аудио кодек: AC3

Видео: ~ 7 000 kbps, 1280х720 (16:9), 23.976 fps
Аудио#1 RUS: AC3, 48 KHz, 6 ch, 384 kbps
Аудио#2 ENG: AC3, 48 KHz, 6 ch, 384 kbps


скриншот  скриншот  скриншот  скриншот  

Общее
Уникальный идентификатор : 214028097767865077255370522246732548066 (0xA1044FEF2A8DEE0795C1551F3D9B87E2)
Полное имя : D:\Marvel's The Punisher - The Complete 1st Season - whip93\Marvel's.The.Punisher.S01E01.3.AM.720p.WEBRip.DD5.1.x264.-whip93.mkv
Формат : Matroska
Версия формата : Version 4 / Version 2
Размер файла : 2,77 Гбайт
Продолжительность : 51 м. 23 с.
Общий поток : 7704 Кбит/сек
Название фильма : Каратель | Marvel's The Punisher (S01E01) - Release by whip93
Дата кодирования : UTC 2017-11-20 07:08:01
Программа кодирования : mkvmerge v17.0.0 ('Be Ur Friend') 64-bit
Библиотека кодирования : libebml v1.3.5 + libmatroska v1.4.8

Видео
Идентификатор : 1
Формат : AVC
Формат/Информация : Advanced Video Codec
Профиль формата : High@L4.1
Параметр CABAC формата : Да
Параметр ReFrames формата : 9 кадров
Идентификатор кодека : V_MPEG4/ISO/AVC
Продолжительность : 51 м. 23 с.
Битрейт : 6934 Кбит/сек
Ширина : 1280 пикселей
Высота : 720 пикселей
Соотношение сторон : 16:9
Режим частоты кадров : Постоянный
Частота кадров : 23,976 (24000/1001) кадра/сек
Цветовое пространство : YUV
Субдискретизация насыщенности : 4:2:0
Битовая глубина : 8 бит
Тип развёртки : Прогрессивная
Бит/(Пиксели*Кадры) : 0.314
Размер потока : 2,49 Гбайт (90%)
Заголовок : Mastered by whip93
Библиотека кодирования : x264 core 152 r2851 ba24899
Настройки программы : cabac=1 / ref=9 / deblock=1:-3:-3 / analyse=0x3:0x133 / me=umh / subme=10 / psy=1 / psy_rd=1.00:0.00 / mixed_ref=1 / me_range=48 / chroma_me=1 / trellis=2 / 8x8dct=1 / cqm=0 / deadzone=21,11 / fast_pskip=0 / chroma_qp_offset=-2 / threads=12 / lookahead_threads=2 / sliced_threads=0 / nr=0 / decimate=0 / interlaced=0 / bluray_compat=0 / constrained_intra=0 / bframes=9 / b_pyramid=2 / b_adapt=2 / b_bias=0 / direct=3 / weightb=1 / open_gop=0 / weightp=2 / keyint=250 / keyint_min=23 / scenecut=40 / intra_refresh=0 / rc=crf / mbtree=0 / crf=18.0 / qcomp=0.60 / qpmin=0 / qpmax=69 / qpstep=4 / ip_ratio=1.40 / pb_ratio=1.30 / aq=3:0.70
Язык : English
Default : Да
Forced : Нет

Аудио #1
Идентификатор : 2
Формат : AC-3
Формат/Информация : Audio Coding 3
Расширение режима : CM (complete main)
Параметр Endianness формата : Big
Идентификатор кодека : A_AC3
Продолжительность : 51 м. 23 с.
Вид битрейта : Постоянный
Битрейт : 384 Кбит/сек
Каналы : 6 каналов
Расположение каналов : Front: L C R, Side: L R, LFE
Частота : 48,0 КГц
Частота кадров : 31,250 кадров/сек (1536 spf)
Метод сжатия : С потерями
Размер потока : 141 Мбайт (5%)
Заголовок : DVO (Кубик в кубе)
Язык : Russian
Default : Да
Forced : Нет

Аудио #2
Идентификатор : 3
Формат : AC-3
Формат/Информация : Audio Coding 3
Расширение режима : CM (complete main)
Параметр Endianness формата : Big
Идентификатор кодека : A_AC3
Продолжительность : 51 м. 23 с.
Вид битрейта : Постоянный
Битрейт : 384 Кбит/сек
Каналы : 6 каналов
Расположение каналов : Front: L C R, Side: L R, LFE
Частота : 48,0 КГц
Частота кадров : 31,250 кадров/сек (1536 spf)
Метод сжатия : С потерями
Размер потока : 141 Мбайт (5%)
Заголовок : Original
Язык : English
Default : Нет
Forced : Нет

Текст #1
Идентификатор : 4
Формат : UTF-8
Идентификатор кодека : S_TEXT/UTF8
Идентификатор кодека/Информация : UTF-8 Plain Text
Продолжительность : 48 м. 56 с.
Битрейт : 94 бит/сек
Count of elements : 592
Размер потока : 33,7 Кбайт (0%)
Заголовок : SFI ft. FOCS
Язык : Russian
Default : Нет
Forced : Нет

Текст #2
Идентификатор : 5
Формат : UTF-8
Идентификатор кодека : S_TEXT/UTF8
Идентификатор кодека/Информация : UTF-8 Plain Text
Продолжительность : 49 м. 1 с.
Битрейт : 69 бит/сек
Count of elements : 730
Размер потока : 24,9 Кбайт (0%)
Заголовок : Original (SDH)
Язык : English
Default : Нет
Forced : Нет

pb.wtf



Скачать Каратель через торрент http://i4.imageban.ru/out/2017/11/19/47b8d9ccc9644d7673dfea182ae42d2b.png Скачать фильм Каратель через торрент бесплантно в хорошем качестве Описание: После того, как семья Фрэнка Касла была убита во время перестрелки нескольких банд Нью-Йорка, он решает отомстить и начинает ... 10 10 2
Info! Золотая раздача, скачанное не засчитывается.
Торрент: Зарегистрирован [2017-12-20 07:05] · скачан: 67 раз
Статус: √ проверено
Размер: 39.84 GB
Как cкачать? Как скачать Каратель через торрент | qTorrent

% Раздел Тема Автор DL S | L
Зарубежные сериалы [ 14.6 GB ] Каратель / The Punisher / Сезон: 2 / Серии: 1-13 из 13 [2019 WEB-DL 720p] [DVO] killermax2013 Скачать
2 | 0
Зарубежные сериалы [ 29.1 GB ] Каратель / The Punisher / Сезон: 2 / Серии: 1-13 из 13 [2019 WEBRip 1080p] [MVO] killermax2013 Скачать
3 | 0
Зарубежные сериалы [ 12.44 GB ] Каратель / The Punisher / Сезон: 2 / Серии: 1-13 из 13 [2019 WEB-DL 720p] MVO [NewStudio] bober100 Скачать
2 | 0
Зарубежные сериалы [ 23.53 GB ] Каратель / The Punisher / Сезон: 2 / Серии: 1-13 из 13 [2019 WEBRip 1080p] [MVO] killermax2013 Скачать
1 | 0
Зарубежные сериалы [ 12.14 GB ] Каратель / The Punisher / Сезон: 2 / Серии: 1-13 из 13 [2019 WEBRip 720p] MVO [Baibako] bober100 Скачать
2 | 0
Зарубежные сериалы [ 23.29 GB ] Каратель / The Punisher / Сезон: 2 / Серии: 1-13 из 13 [2019 WEB-DL 1080p] MVO [Jaskier] bober100 Скачать
1 | 0
Зарубежные сериалы [ 12.19 GB ] Каратель / The Punisher / Сезон: 2 / Серии: 1-13 из 13 [2019 WEB-DL 720p] MVO [Jaskier] bober100 Скачать
1 | 0

28-11-2019 20:33  

Отключить всю рекламу на сайте

    Дорогой пользователь! Огромная просьба, поблагодарите релизера, оцените раздачу и оставьте свои комментарий, если Вы скачали Каратель через торрент бесплатно! Внесите свою лепту в развитие PiratBit!
    Комментировать посты могут только пользователи прошедшие не сложную регистрацию
    Показать сообщения:    

    Каратель через торрент
    Скачать бесплатно Каратель
    Каратель скачать торрент
    Каратель смотреть онлайн
    Cкачать фильм Каратель бесплатно
    Каратель скачать торрент в хорошем качестве
    Каратель смотреть онлайн бесплатно в хорошем качестве


    Вы не можете начинать темы
    Вы не можете отвечать на сообщения
    Вы не можете редактировать свои сообщения
    Вы не можете удалять свои сообщения
    Вы не можете голосовать в опросах
    Вы не можете прикреплять файлы к сообщениям
    Вы можете скачивать файлы