Ссылка на приватное зеркало нашего сайта всего за 1$. Внимание количество ограничено!!!

2 сезон

iTunes

1 сезон

1

2 сезон

2 сезон

iTunes

1 сезон

RePack

30

Новинка

ВАЖНО

ИГРА 18+

pack

RePack

MK11
pack

Забери бонус

RePack

jed

!!Акция!!

Alien_Rage

RePack

fifa19

RePack

Assassins Creed: Odyssey

RePack

NEED FOR SPEED™ PAYBACK

4 сезон

9 сезон

Бесстыжие 9 сезон

Все сериалы

все сериалы на PB.wtf

RePack

FAR CRY 5
  

Жан-Клод Ван Джонсон / Jean-Claude Van Johnson / Сезон: 1 / Серии 1-6 из 6 (Питер Атенсио / Peter Atencio) [2017, комедия, WEB-DLRip] [MVO] (Newstudio) pb.wtf

Жан-Клод Ван Джонсон через торрент pb.wtf

Размер: 2.06 GB | Добавлен: 2 года 11 мес. назад | Торрент скачан:87 раз
Скачать  

20-12-2017 07:35 Жан-Клод Ван Джонсон Скачать торрент  

Жан-Клод Ван Джонсон / Jean-Claude Van Johnson Год выхода: 2017
Жанр: комедия
Страна: США, Amazon Studios
Продолжительность: ~ 00:30:00
Перевод: Профессиональный (многоголосый закадровый) | Newstudio

Режиссер: Питер Атенсио

В ролях: Жан-Клод Ван Дамм, Кэт Фостер, Мойзес Ариас, Филисия Рашад, Бар Пали, Тим Пепер, Дерен Лерой, Кевин Майкл Уолш, Тейт Флетчер, Стэйси Дейнджер

О фильме: Создатели нового сериала «Жан-Клод Ван Джонсон» пытаются убедить зрителя в том, что на самом деле под всем известной фамилией Ван Дамм скрывается спецагент по фамилии Джонсон, который внешний вид актера использует исключительно для работы под прикрытием и успешного выполнения различных секретных операций. А свое очередное задание Джонсон выполняет, снимаясь в необычной версии «Приключений Гекельберри Финна».



Файл
Качество: WEB-DLRip
Формат: AVI
Видео: 720x304, XviD ~1306 kbps avg, 23.976 fps
Аудио: 48.0 kHz, MP3, 2 ch, 128 Кбит/с - MVO
Аудио: 48.0 kHz, MP3, 2 ch, 128 Кбит/с - ENG
Субтитры: нет
General
Complete name : E:\Jean-Claude.Van.Johnson.s01.WEBDLRip.NewStudio.TV\Jean-Claude.Van.Johnson.s01e01.WEBDLRip.NewStudio.TV.avi
Format : AVI
Format/Info : Audio Video Interleave
File size : 352 MiB
Duration : 30 min 50 s
Overall bit rate : 1 596 kb/s
Writing application : VirtualDubMod 1.5.10.2 (build 2540/release)
Writing library : VirtualDubMod build 2540/release

Video
ID : 0
Format : MPEG-4 Visual
Format profile : Advanced Simple@L5
Format settings : BVOP2 / QPel
Format settings, BVOP : 2
Format settings, QPel : Yes
Format settings, GMC : No warppoints
Format settings, Matrix : Default (MPEG)
Muxing mode : Packed bitstream
Codec ID : XVID
Codec ID/Hint : XviD
Duration : 30 min 50 s
Bit rate : 1 266 kb/s
Width : 720 pixels
Height : 304 pixels
Display aspect ratio : 2.35:1
Frame rate : 23.976 (24000/1001) FPS
Color space : YUV
Chroma subsampling : 4:2:0
Bit depth : 8 bits
Scan type : Progressive
Compression mode : Lossy
Bits/(Pixel*Frame) : 0.241
Stream size : 279 MiB (79%)
Writing library : XviD 73

Audio #1
ID : 1
Format : MPEG Audio
Format version : Version 1
Format profile : Layer 3
Format settings : Joint stereo / MS Stereo
Mode : Joint stereo
Mode extension : MS Stereo
Codec ID : 55
Codec ID/Hint : MP3
Duration : 30 min 50 s
Bit rate mode : Constant
Bit rate : 128 kb/s
Channel(s) : 2 channels
Sampling rate : 48.0 kHz
Compression mode : Lossy
Stream size : 28.2 MiB (8%)
Alignment : Aligned on interleaves

Audio #2
ID : 2
Format : MPEG Audio
Format version : Version 1
Format profile : Layer 3
Format settings : Joint stereo
Mode : Joint stereo
Codec ID : 55
Codec ID/Hint : MP3
Duration : 30 min 50 s
Bit rate mode : Constant
Bit rate : 128 kb/s
Channel(s) : 2 channels
Sampling rate : 48.0 kHz
Compression mode : Lossy
Stream size : 28.2 MiB (8%)
Alignment : Aligned on interleaves
Writing library : LAME3.99r
Encoding settings : -m j -V 4 -q 2 -lowpass 17 -b 128
скриншот  скриншот  скриншот  
Когда раздача ведётся путём добавления новых серий, при каждом добавлении создётся новый торрент. Чтобы начать докачку новой серии, пользователям необходимо сделать следующее:
(1) остановить скачивание,
(2) удалить старый торрент у себя из клиента (старые серии удалять не надо),
(3) скачать новый торрент и запустить его у себя в клиенте вместо старого, при этом указать клиенту путь в старую папку, куда и должно происходить скачивание новых серий.
Ваш клиент при этом должен произвести хеширование (проверку) старой папки (если не производит сам - помогите ему сделать это), и будет докачивать только те серии, которых у вас ещё нет. Старые серии при этом не удаляются, а продолжают раздаваться!
Eсли вы уже удалили старые серии, то предотвратить повторную закачку старых серий можно, отжав галочку в соответсвующих местах при запуске нового торрента. По возможности, желательно не удалять старые серии как можно дольше, чтобы релизёр не столько продолжал раздавать старые серии, а смог сконцентрироваться на новых.
pb.wtf



Скачать Жан-Клод Ван Джонсон через торрент http://i97.fastpic.ru/big/2017/1120/18/c255391b28a0f6aef5782e6ba7d05b18.png Скачать фильм Жан-Клод Ван Джонсон через торрент бесплантно в хорошем качестве О фильме: Создатели нового сериала «Жан-Клод Ван Джонсон» пытаются убедить зрителя в том, что на самом деле под всем известной фамилией Ван ... 9.8 10 9
Торрент: Зарегистрирован [2017-12-23 22:20] · скачан: 87 раз
Статус: √ проверено
Размер: 2.06 GB
Как cкачать? Как скачать Жан-Клод Ван Джонсон через торрент | qTorrent

% Раздел Тема Автор DL S | L
Зарубежные сериалы [ 2.24 GB ] Жан-Клод Ван Джонсон / Jean-Claude Van Johnson / Сезон 1 / Серии 1-6 из 6 [2017 WEB-DLRip] MVO [LostFilm] bober100 Скачать
1 | 0
Зарубежные сериалы [ 5.29 GB ] Жан-Клод Ван Джонсон / Jean-Claude Van Johnson / Сезон: 1 / Серии 1-6 из 6 [2017 WEBRip 720p] [VO] killermax2013 Скачать
1 | 0
Зарубежные сериалы [ 6.21 GB ] Жан-Клод Ван Джонсон / Jean-Claude Van Johnson / Сезон 1 / Серии 1-6 из 6 [2017 WEB-DL 1080p] MVO [NewStudio] bober100 Скачать
1 | 0
Зарубежные сериалы [ 6.33 GB ] Жан-Клод Ван Джонсон / Jean-Claude Van Johnson / Сезон: 1 / Серии 1-6 из 6 [2017 WEBRip 1080p] MVO [BaibaKo] GEKADOL Скачать
1 | 0
Зарубежные сериалы [ 3.03 GB ] Жан-Клод Ван Джонсон / Jean-Claude Van Johnson / Сезон 1 / Серии 1-6 из 6 [2017 WEBRip 720p] MVO [BaibaKo] bober100 Скачать
1 | 0
Зарубежные сериалы [ 2.01 GB ] Жан-Клод Ван Джонсон / Jean-Claude Van Johnson / Сезон: 1 / Серии 1-6 из 6 [2017 WEBRip] MVO [BaibaKo] GEKADOL Скачать
1 | 0
Зарубежные сериалы [ 9.77 GB ] Жан-Клод Ван Джонсон / Jean-Claude Van Johnson / Сезон 1 / Серии 1-6 из 6 [2017 WEBRip 1080p] MVO [IdeaFilm] bober100 Скачать
1 | 0

28-11-2019 20:33  

Отключить всю рекламу на сайте

23-12-2017 22:20 Жан-Клод Ван Джонсон Скачать торрент  

+5-6pb.wtf



11-01-2018 18:14 Жан-Клод Ван Джонсон Скачать торрент  

Спс!pb.wtf



    Дорогой пользователь! Огромная просьба, поблагодарите релизера, оцените раздачу и оставьте свои комментарий, если Вы скачали Жан-Клод Ван Джонсон через торрент бесплатно! Внесите свою лепту в развитие PiratBit!
    Комментировать посты могут только пользователи прошедшие не сложную регистрацию
    Показать сообщения:    

    Жан-Клод Ван Джонсон через торрент
    Скачать бесплатно Жан-Клод Ван Джонсон
    Жан-Клод Ван Джонсон скачать торрент
    Жан-Клод Ван Джонсон смотреть онлайн
    Cкачать фильм Жан-Клод Ван Джонсон бесплатно
    Жан-Клод Ван Джонсон скачать торрент в хорошем качестве
    Жан-Клод Ван Джонсон смотреть онлайн бесплатно в хорошем качестве


    Вы не можете начинать темы
    Вы не можете отвечать на сообщения
    Вы не можете редактировать свои сообщения
    Вы не можете удалять свои сообщения
    Вы не можете голосовать в опросах
    Вы не можете прикреплять файлы к сообщениям
    Вы можете скачивать файлы